  0
SECTION
  2
HEADER
  9
$ACADVER
  1
AC1015
  9
$ACADMAINTVER
 70
     6
  9
$DWGCODEPAGE
  3
ANSI_1252
  9
$INSBASE
 10
0.0
 20
0.0
 30
0.0
  9
$EXTMIN
 10
22.0404696818
 20
274.4754635133
 30
0.0
  9
$EXTMAX
 10
442.4630456341664
 20
563.9911785163512
 30
0.0
  9
$LIMMIN
 10
0.0
 20
0.0
  9
$LIMMAX
 10
840.0
 20
594.0
  9
$ORTHOMODE
 70
     0
  9
$REGENMODE
 70
     1
  9
$FILLMODE
 70
     1
  9
$QTEXTMODE
 70
     0
  9
$MIRRTEXT
 70
     1
  9
$LTSCALE
 40
2.0
  9
$ATTMODE
 70
     1
  9
$TEXTSIZE
 40
5.6
  9
$TRACEWID
 40
1.0
  9
$TEXTSTYLE
  7
Standard
  9
$CLAYER
  8
0
  9
$CELTYPE
  6
ByLayer
  9
$CECOLOR
 62
   256
  9
$CELTSCALE
 40
1.0
  9
$DISPSILH
 70
     0
  9
$DIMSCALE
 40
1.0
  9
$DIMASZ
 40
6.4
  9
$DIMEXO
 40
0.2
  9
$DIMDLI
 40
3.75
  9
$DIMRND
 40
0.0
  9
$DIMDLE
 40
0.0
  9
$DIMEXE
 40
2.0
  9
$DIMTP
 40
0.0
  9
$DIMTM
 40
0.0
  9
$DIMTXT
 40
6.4
  9
$DIMCEN
 40
2.5
  9
$DIMTSZ
 40
0.0
  9
$DIMTOL
 70
     0
  9
$DIMLIM
 70
     0
  9
$DIMTIH
 70
     1
  9
$DIMTOH
 70
     1
  9
$DIMSE1
 70
     0
  9
$DIMSE2
 70
     0
  9
$DIMTAD
 70
     1
  9
$DIMZIN
 70
     0
  9
$DIMBLK
  1

  9
$DIMASO
 70
     1
  9
$DIMSHO
 70
     1
  9
$DIMPOST
  1

  9
$DIMAPOST
  1

  9
$DIMALT
 70
     0
  9
$DIMALTD
 70
     3
  9
$DIMALTF
 40
0.0393700787
  9
$DIMLFAC
 40
1.0
  9
$DIMTOFL
 70
     1
  9
$DIMTVP
 40
0.0
  9
$DIMTIX
 70
     0
  9
$DIMSOXD
 70
     0
  9
$DIMSAH
 70
     0
  9
$DIMBLK1
  1

  9
$DIMBLK2
  1

  9
$DIMSTYLE
  2
ISO-25
  9
$DIMCLRD
 70
     0
  9
$DIMCLRE
 70
     0
  9
$DIMCLRT
 70
     0
  9
$DIMTFAC
 40
1.0
  9
$DIMGAP
 40
4.0
  9
$DIMJUST
 70
     0
  9
$DIMSD1
 70
     0
  9
$DIMSD2
 70
     0
  9
$DIMTOLJ
 70
     0
  9
$DIMTZIN
 70
     0
  9
$DIMALTZ
 70
     0
  9
$DIMALTTZ
 70
     0
  9
$DIMUPT
 70
     0
  9
$DIMDEC
 70
     2
  9
$DIMTDEC
 70
     2
  9
$DIMALTU
 70
     2
  9
$DIMALTTD
 70
     3
  9
$DIMTXSTY
  7
Standard
  9
$DIMAUNIT
 70
     0
  9
$DIMADEC
 70
     2
  9
$DIMALTRND
 40
0.0
  9
$DIMAZIN
 70
     0
  9
$DIMDSEP
 70
    44
  9
$DIMATFIT
 70
     3
  9
$DIMFRAC
 70
     0
  9
$DIMLDRBLK
  1

  9
$DIMLUNIT
 70
     2
  9
$DIMLWD
 70
    -2
  9
$DIMLWE
 70
    -2
  9
$DIMTMOVE
 70
     0
  9
$LUNITS
 70
     2
  9
$LUPREC
 70
     2
  9
$SKETCHINC
 40
1.0
  9
$FILLETRAD
 40
10.0
  9
$AUNITS
 70
     0
  9
$AUPREC
 70
     2
  9
$MENU
  1
.
  9
$ELEVATION
 40
0.0
  9
$PELEVATION
 40
0.0
  9
$THICKNESS
 40
0.0
  9
$LIMCHECK
 70
     0
  9
$CHAMFERA
 40
0.0
  9
$CHAMFERB
 40
0.0
  9
$CHAMFERC
 40
0.0
  9
$CHAMFERD
 40
0.0
  9
$SKPOLY
 70
     0
  9
$TDCREATE
 40
2458334.478411273
  9
$TDUCREATE
 40
2458334.39507794
  9
$TDUPDATE
 40
2458334.480125347
  9
$TDUUPDATE
 40
2458334.396792014
  9
$TDINDWG
 40
0.0002521991
  9
$TDUSRTIMER
 40
0.0002521875
  9
$USRTIMER
 70
     1
  9
$ANGBASE
 50
0.0
  9
$ANGDIR
 70
     0
  9
$PDMODE
 70
     0
  9
$PDSIZE
 40
-1.0
  9
$PLINEWID
 40
0.0
  9
$SPLFRAME
 70
     0
  9
$SPLINETYPE
 70
     6
  9
$SPLINESEGS
 70
     8
  9
$HANDSEED
  5
4FE
  9
$SURFTAB1
 70
     6
  9
$SURFTAB2
 70
     6
  9
$SURFTYPE
 70
     6
  9
$SURFU
 70
     6
  9
$SURFV
 70
     6
  9
$UCSBASE
  2

  9
$UCSNAME
  2

  9
$UCSORG
 10
0.0
 20
0.0
 30
0.0
  9
$UCSXDIR
 10
1.0
 20
0.0
 30
0.0
  9
$UCSYDIR
 10
0.0
 20
1.0
 30
0.0
  9
$UCSORTHOREF
  2

  9
$UCSORTHOVIEW
 70
     0
  9
$UCSORGTOP
 10
0.0
 20
0.0
 30
0.0
  9
$UCSORGBOTTOM
 10
0.0
 20
0.0
 30
0.0
  9
$UCSORGLEFT
 10
0.0
 20
0.0
 30
0.0
  9
$UCSORGRIGHT
 10
0.0
 20
0.0
 30
0.0
  9
$UCSORGFRONT
 10
0.0
 20
0.0
 30
0.0
  9
$UCSORGBACK
 10
0.0
 20
0.0
 30
0.0
  9
$PUCSBASE
  2

  9
$PUCSNAME
  2

  9
$PUCSORG
 10
0.0
 20
0.0
 30
0.0
  9
$PUCSXDIR
 10
1.0
 20
0.0
 30
0.0
  9
$PUCSYDIR
 10
0.0
 20
1.0
 30
0.0
  9
$PUCSORTHOREF
  2

  9
$PUCSORTHOVIEW
 70
     0
  9
$PUCSORGTOP
 10
0.0
 20
0.0
 30
0.0
  9
$PUCSORGBOTTOM
 10
0.0
 20
0.0
 30
0.0
  9
$PUCSORGLEFT
 10
0.0
 20
0.0
 30
0.0
  9
$PUCSORGRIGHT
 10
0.0
 20
0.0
 30
0.0
  9
$PUCSORGFRONT
 10
0.0
 20
0.0
 30
0.0
  9
$PUCSORGBACK
 10
0.0
 20
0.0
 30
0.0
  9
$USERI1
 70
     0
  9
$USERI2
 70
     0
  9
$USERI3
 70
     0
  9
$USERI4
 70
     0
  9
$USERI5
 70
     0
  9
$USERR1
 40
0.0
  9
$USERR2
 40
0.0
  9
$USERR3
 40
0.0
  9
$USERR4
 40
0.0
  9
$USERR5
 40
0.0
  9
$WORLDVIEW
 70
     1
  9
$SHADEDGE
 70
     3
  9
$SHADEDIF
 70
    70
  9
$TILEMODE
 70
     1
  9
$MAXACTVP
 70
    64
  9
$PINSBASE
 10
0.0
 20
0.0
 30
0.0
  9
$PLIMCHECK
 70
     0
  9
$PEXTMIN
 10
1.000000000000000E+20
 20
1.000000000000000E+20
 30
1.000000000000000E+20
  9
$PEXTMAX
 10
-1.000000000000000E+20
 20
-1.000000000000000E+20
 30
-1.000000000000000E+20
  9
$PLIMMIN
 10
0.0
 20
0.0
  9
$PLIMMAX
 10
0.0
 20
0.0
  9
$UNITMODE
 70
     0
  9
$VISRETAIN
 70
     1
  9
$PLINEGEN
 70
     0
  9
$PSLTSCALE
 70
     1
  9
$TREEDEPTH
 70
  3020
  9
$CMLSTYLE
  2
Standard
  9
$CMLJUST
 70
     0
  9
$CMLSCALE
 40
20.0
  9
$PROXYGRAPHICS
 70
     1
  9
$MEASUREMENT
 70
     1
  9
$CELWEIGHT
370
    -1
  9
$ENDCAPS
280
     0
  9
$JOINSTYLE
280
     0
  9
$LWDISPLAY
290
     1
  9
$INSUNITS
 70
     4
  9
$HYPERLINKBASE
  1

  9
$STYLESHEET
  1

  9
$XEDIT
290
     1
  9
$CEPSNTYPE
380
     0
  9
$PSTYLEMODE
290
     1
  9
$FINGERPRINTGUID
  2
{E668BC29-10C6-403D-BC36-4C93345FD259}
  9
$VERSIONGUID
  2
{FAEB1C32-E019-11D5-929B-00C0DF256EC4}
  9
$EXTNAMES
290
     1
  9
$PSVPSCALE
 40
0.0
  9
$OLESTARTUP
290
     0
  0
ENDSEC
  0
SECTION
  2
CLASSES
  0
CLASS
  1
ACDBDICTIONARYWDFLT
  2
AcDbDictionaryWithDefault
  3
ObjectDBX Classes
 90
        0
280
     0
281
     0
  0
CLASS
  1
VISUALSTYLE
  2
AcDbVisualStyle
  3
ObjectDBX Classes
 90
     4095
280
     0
281
     0
  0
CLASS
  1
MATERIAL
  2
AcDbMaterial
  3
ObjectDBX Classes
 90
     1153
280
     0
281
     0
  0
CLASS
  1
SCALE
  2
AcDbScale
  3
ObjectDBX Classes
 90
     1153
280
     0
281
     0
  0
CLASS
  1
TABLESTYLE
  2
AcDbTableStyle
  3
ObjectDBX Classes
 90
     4095
280
     0
281
     0
  0
CLASS
  1
MLEADERSTYLE
  2
AcDbMLeaderStyle
  3
ACDB_MLEADERSTYLE_CLASS
 90
     4095
280
     0
281
     0
  0
CLASS
  1
SUN
  2
AcDbSun
  3
SCENEOE
 90
     1153
280
     0
281
     0
  0
CLASS
  1
ACDBPLACEHOLDER
  2
AcDbPlaceHolder
  3
ObjectDBX Classes
 90
        0
280
     0
281
     0
  0
CLASS
  1
LAYOUT
  2
AcDbLayout
  3
ObjectDBX Classes
 90
        0
280
     0
281
     0
  0
CLASS
  1
SORTENTSTABLE
  2
AcDbSortentsTable
  3
ObjectDBX Classes
 90
        0
280
     0
281
     0
  0
ENDSEC
  0
SECTION
  2
TABLES
  0
TABLE
  2
VPORT
  5
8
330
0
100
AcDbSymbolTable
 70
     1
  0
VPORT
  5
29
330
8
100
AcDbSymbolTableRecord
100
AcDbViewportTableRecord
  2
*Active
 70
     0
 10
0.0
 20
0.0
 11
1.0
 21
1.0
 12
232.2517576579832
 22
419.2333210148256
 13
0.0
 23
0.0
 14
10.0
 24
10.0
 15
10.0
 25
10.0
 16
0.0
 26
0.0
 36
1.0
 17
0.0
 27
0.0
 37
0.0
 40
295.3060293031122
 41
2.307692307692307
 42
50.0
 43
0.0
 44
0.0
 50
0.0
 51
0.0
 71
    16
 72
  2000
 73
     1
 74
     3
 75
     0
 76
     0
 77
     0
 78
     0
281
     0
 65
     1
110
0.0
120
0.0
130
0.0
111
1.0
121
0.0
131
0.0
112
0.0
122
1.0
132
0.0
 79
     0
146
0.0
  0
ENDTAB
  0
TABLE
  2
LTYPE
  5
5
330
0
100
AcDbSymbolTable
 70
     6
  0
LTYPE
  5
14
330
5
100
AcDbSymbolTableRecord
100
AcDbLinetypeTableRecord
  2
ByBlock
 70
     0
  3

 72
    65
 73
     0
 40
0.0
  0
LTYPE
  5
15
330
5
100
AcDbSymbolTableRecord
100
AcDbLinetypeTableRecord
  2
ByLayer
 70
     0
  3

 72
    65
 73
     0
 40
0.0
  0
LTYPE
  5
16
330
5
100
AcDbSymbolTableRecord
100
AcDbLinetypeTableRecord
  2
Continuous
 70
     0
  3
Solid line
 72
    65
 73
     0
 40
0.0
  0
LTYPE
  5
6E
330
5
100
AcDbSymbolTableRecord
100
AcDbLinetypeTableRecord
  2
HIDDEN
 70
     0
  3
Hidden __ __ __ __ __ __ __ __ __ __ __ __ __ __
 72
    65
 73
     2
 40
1.905
 49
1.27
 74
     0
 49
-0.635
 74
     0
  0
LTYPE
  5
6F
330
5
100
AcDbSymbolTableRecord
100
AcDbLinetypeTableRecord
  2
PHANTOM
 70
     0
  3
Phantom ______  __  __  ______  __  __  ______
 72
    65
 73
     6
 40
12.7
 49
6.35
 74
     0
 49
-1.27
 74
     0
 49
1.27
 74
     0
 49
-1.27
 74
     0
 49
1.27
 74
     0
 49
-1.27
 74
     0
  0
LTYPE
  5
70
330
5
100
AcDbSymbolTableRecord
100
AcDbLinetypeTableRecord
  2
CENTER
 70
     0
  3
Center ____ _ ____ _ ____ _ ____ _ ____ _ ____
 72
    65
 73
     4
 40
10.16
 49
6.35
 74
     0
 49
-1.27
 74
     0
 49
1.27
 74
     0
 49
-1.27
 74
     0
  0
LTYPE
  5
71
330
5
100
AcDbSymbolTableRecord
100
AcDbLinetypeTableRecord
  2
CENTERX2
 70
     0
  3
Center (2x) ________  __  ________  __  _____
 72
    65
 73
     4
 40
20.32
 49
12.7
 74
     0
 49
-2.54
 74
     0
 49
2.54
 74
     0
 49
-2.54
 74
     0
  0
LTYPE
  5
72
330
5
100
AcDbSymbolTableRecord
100
AcDbLinetypeTableRecord
  2
DOT2
 70
     0
  3
Dot (.5x) ........................................
 72
    65
 73
     2
 40
0.635
 49
0.0
 74
     0
 49
-0.635
 74
     0
  0
ENDTAB
  0
TABLE
  2
LAYER
  5
2
330
0
100
AcDbSymbolTable
 70
     3
  0
LAYER
  5
10
330
2
100
AcDbSymbolTableRecord
100
AcDbLayerTableRecord
  2
0
 70
     0
 62
     7
  6
Continuous
370
    -3
390
F
  0
LAYER
  5
73
330
2
100
AcDbSymbolTableRecord
100
AcDbLayerTableRecord
  2
FORMAT
 70
     0
 62
     7
  6
Continuous
370
    -3
390
F
  0
LAYER
  5
4D3
330
2
100
AcDbSymbolTableRecord
100
AcDbLayerTableRecord
  2
Defpoints
 70
     0
 62
     7
  6
Continuous
290
     0
370
    -3
390
F
  0
ENDTAB
  0
TABLE
  2
STYLE
  5
3
330
0
100
AcDbSymbolTable
 70
     2
  0
STYLE
  5
11
330
3
100
AcDbSymbolTableRecord
100
AcDbTextStyleTableRecord
  2
Standard
 70
     0
 40
0.0
 41
1.0
 50
0.0
 71
     0
 42
5.6
  3
txt
  4

  0
STYLE
  5
77
330
3
100
AcDbSymbolTableRecord
100
AcDbTextStyleTableRecord
  2
SLDTEXTSTYLE0
 70
     0
 40
0.0
 41
0.75
 50
0.0
 71
     0
 42
5.6
  3
TXT
  4

  0
ENDTAB
  0
TABLE
  2
VIEW
  5
6
330
0
100
AcDbSymbolTable
 70
     0
  0
ENDTAB
  0
TABLE
  2
UCS
  5
7
330
0
100
AcDbSymbolTable
 70
     0
  0
ENDTAB
  0
TABLE
  2
APPID
  5
9
330
0
100
AcDbSymbolTable
 70
     2
  0
APPID
  5
12
330
9
100
AcDbSymbolTableRecord
100
AcDbRegAppTableRecord
  2
ACAD
 70
     0
  0
APPID
  5
4D2
330
9
100
AcDbSymbolTableRecord
100
AcDbRegAppTableRecord
  2
PE_URL
 70
     0
  0
ENDTAB
  0
TABLE
  2
DIMSTYLE
  5
A
330
0
100
AcDbSymbolTable
 70
     5
100
AcDbDimStyleTable
  0
DIMSTYLE
105
27
330
A
100
AcDbSymbolTableRecord
100
AcDbDimStyleTableRecord
  2
ISO-25
 70
     0
 41
2.5
 42
0.625
 43
3.75
 44
1.25
 73
     0
 74
     0
 77
     1
 78
     8
140
2.5
141
2.5
143
0.0393700787
147
0.625
171
     3
172
     1
178
     0
271
     2
272
     2
274
     3
278
    44
283
     0
284
     8
340
11
  0
DIMSTYLE
105
1F4
102
{ACAD_REACTORS
330
1F3
330
216
102
}
330
A
100
AcDbSymbolTableRecord
100
AcDbDimStyleTableRecord
  2
SLDDIMSTYLE0
 70
     0
 41
6.4
 44
0.0
 45
0.000000001
 73
     0
 74
     0
 77
     1
 78
    12
 79
     3
140
4.4
147
1.1
173
     1
178
     0
271
     2
272
     2
276
     2
284
    12
340
77
  0
DIMSTYLE
105
1FF
102
{ACAD_REACTORS
330
1FE
102
}
330
A
100
AcDbSymbolTableRecord
100
AcDbDimStyleTableRecord
  2
SLDDIMSTYLE1
 70
     0
 41
6.4
 44
0.0
 45
0.000000001
 73
     0
 74
     0
 77
     1
 78
    12
 79
     3
140
4.4
147
1.1
173
     1
178
     0
271
     0
272
     0
276
     2
284
    12
340
77
  0
DIMSTYLE
105
20A
102
{ACAD_REACTORS
330
209
330
220
102
}
330
A
100
AcDbSymbolTableRecord
100
AcDbDimStyleTableRecord
  2
SLDDIMSTYLE2
 70
     0
 41
6.4
 44
0.0
 45
0.000000001
 73
     0
 74
     0
 77
     1
 78
    12
 79
     3
140
4.4
147
1.1
172
     1
173
     1
178
     0
271
     2
272
     2
276
     2
284
    12
289
     0
340
77
  0
DIMSTYLE
105
4A9
330
A
100
AcDbSymbolTableRecord
100
AcDbDimStyleTableRecord
  2
Standard
 70
     0
 41
1.25
 42
0.0
 44
0.75
 73
     0
 74
     0
 77
     1
140
2.5
146
0.8
147
1.25
176
     7
177
     7
271
     2
178
     7
271
     2
340
11
  0
ENDTAB
  0
TABLE
  2
BLOCK_RECORD
  5
1
330
0
100
AcDbSymbolTable
 70
    14
  0
BLOCK_RECORD
  5
1F
330
1
100
AcDbSymbolTableRecord
100
AcDbBlockTableRecord
  2
*Model_Space
340
22
  0
BLOCK_RECORD
  5
1B
330
1
100
AcDbSymbolTableRecord
100
AcDbBlockTableRecord
  2
*Paper_Space
340
1E
  0
BLOCK_RECORD
  5
23
330
1
100
AcDbSymbolTableRecord
100
AcDbBlockTableRecord
  2
*Paper_Space0
340
26
  0
BLOCK_RECORD
  5
74
330
1
100
AcDbSymbolTableRecord
100
AcDbBlockTableRecord
  2
SW_NOTE_0
340
0
102
{BLKREFS
331
0
102
}
  0
BLOCK_RECORD
  5
168
330
1
100
AcDbSymbolTableRecord
100
AcDbBlockTableRecord
  2
SW_CENTERMARKSYMBOL_0
340
0
102
{BLKREFS
331
0
102
}
  0
BLOCK_RECORD
  5
174
330
1
100
AcDbSymbolTableRecord
100
AcDbBlockTableRecord
  2
SW_CENTERMARKSYMBOL_1
340
0
102
{BLKREFS
331
0
102
}
  0
BLOCK_RECORD
  5
180
330
1
100
AcDbSymbolTableRecord
100
AcDbBlockTableRecord
  2
SW_CENTERMARKSYMBOL_2
340
0
102
{BLKREFS
331
0
102
}
  0
BLOCK_RECORD
  5
18C
330
1
100
AcDbSymbolTableRecord
100
AcDbBlockTableRecord
  2
SW_CENTERMARKSYMBOL_3
340
0
102
{BLKREFS
331
0
102
}
  0
BLOCK_RECORD
  5
1F5
330
1
100
AcDbSymbolTableRecord
100
AcDbBlockTableRecord
  2
_D
340
0
  0
BLOCK_RECORD
  5
200
330
1
100
AcDbSymbolTableRecord
100
AcDbBlockTableRecord
  2
_D_1
340
0
  0
BLOCK_RECORD
  5
20B
330
1
100
AcDbSymbolTableRecord
100
AcDbBlockTableRecord
  2
_D_2
340
0
  0
BLOCK_RECORD
  5
217
330
1
100
AcDbSymbolTableRecord
100
AcDbBlockTableRecord
  2
_D_3
340
0
  0
BLOCK_RECORD
  5
221
330
1
100
AcDbSymbolTableRecord
100
AcDbBlockTableRecord
  2
_D_4
340
0
  0
BLOCK_RECORD
  5
22A
330
1
100
AcDbSymbolTableRecord
100
AcDbBlockTableRecord
  2
SW_CENTERMARKSYMBOL_4
340
0
102
{BLKREFS
331
235
102
}
  0
ENDTAB
  0
ENDSEC
  0
SECTION
  2
BLOCKS
  0
BLOCK
  5
20
330
1F
100
AcDbEntity
  8
0
100
AcDbBlockBegin
  2
*Model_Space
 70
     0
 10
0.0
 20
0.0
 30
0.0
  3
*Model_Space
  1

  0
ENDBLK
  5
21
330
1F
100
AcDbEntity
  8
0
100
AcDbBlockEnd
  0
BLOCK
  5
1C
330
1B
100
AcDbEntity
 67
     1
  8
0
100
AcDbBlockBegin
  2
*Paper_Space
 70
     0
 10
0.0
 20
0.0
 30
0.0
  3
*Paper_Space
  1

  0
ENDBLK
  5
1D
330
1B
100
AcDbEntity
 67
     1
  8
0
100
AcDbBlockEnd
  0
BLOCK
  5
24
330
23
100
AcDbEntity
  8
0
100
AcDbBlockBegin
  2
*Paper_Space0
 70
     0
 10
0.0
 20
0.0
 30
0.0
  3
*Paper_Space0
  1

  0
ENDBLK
  5
25
330
23
100
AcDbEntity
  8
0
100
AcDbBlockEnd
  0
BLOCK
  5
75
330
74
100
AcDbEntity
  8
0
100
AcDbBlockBegin
  2
SW_NOTE_0
 70
     0
 10
0.0
 20
0.0
 30
0.0
  3
SW_NOTE_0
  1

  0
MTEXT
  5
78
330
74
100
AcDbEntity
  8
0
  6
Continuous
 62
     0
370
     0
100
AcDbMText
 10
0.0
 20
12.2783702213
 30
0.0
 40
9.525
 41
0.0
 71
     1
 72
     1
  1
8505N
  7
SLDTEXTSTYLE0
 73
     1
 44
1.0
  0
MTEXT
  5
79
330
74
100
AcDbEntity
  8
0
  6
Continuous
 62
     0
370
     0
100
AcDbMText
 10
0.0
 20
-2.421629953
 30
0.0
 40
9.525
 41
0.0
 71
     1
 72
     1
  1
VETRI 6-8-10
  7
SLDTEXTSTYLE0
 73
     1
 44
1.0
  0
MTEXT
  5
7A
330
74
100
AcDbEntity
  8
0
  6
Continuous
 62
     0
370
     0
100
AcDbMText
 10
0.0
 20
-17.1216301274
 30
0.0
 40
9.525
 41
0.0
 71
     1
 72
     1
  1
Cerniera  a scatto regolabile
  7
SLDTEXTSTYLE0
 73
     1
 44
1.0
  0
ENDBLK
  5
76
330
74
100
AcDbEntity
  8
0
100
AcDbBlockEnd
  0
BLOCK
  5
169
330
168
100
AcDbEntity
  8
0
100
AcDbBlockBegin
  2
SW_CENTERMARKSYMBOL_0
 70
     0
 10
0.0
 20
0.0
 30
0.0
  3
SW_CENTERMARKSYMBOL_0
  1

  0
LINE
  5
16B
330
168
100
AcDbEntity
  8
0
  6
Continuous
 62
     0
370
     0
100
AcDbLine
 10
0.0
 20
0.0
 30
0.0
 11
0.0
 21
2.5
 31
0.0
  0
LINE
  5
16C
330
168
100
AcDbEntity
  8
0
  6
Continuous
 62
     0
370
     0
100
AcDbLine
 10
0.0
 20
0.0
 30
0.0
 11
-2.5
 21
0.0
 31
0.0
  0
LINE
  5
16D
330
168
100
AcDbEntity
  8
0
  6
Continuous
 62
     0
370
     0
100
AcDbLine
 10
0.0
 20
0.0
 30
0.0
 11
0.0
 21
-2.5
 31
0.0
  0
LINE
  5
16E
330
168
100
AcDbEntity
  8
0
  6
Continuous
 62
     0
370
     0
100
AcDbLine
 10
0.0
 20
0.0
 30
0.0
 11
2.5
 21
0.0
 31
0.0
  0
LINE
  5
16F
330
168
100
AcDbEntity
  8
0
  6
Continuous
 62
     0
370
     0
100
AcDbLine
 10
0.0
 20
5.0
 30
0.0
 11
0.0
 21
10.5
 31
0.0
  0
LINE
  5
170
330
168
100
AcDbEntity
  8
0
  6
Continuous
 62
     0
370
     0
100
AcDbLine
 10
-5.0
 20
0.0
 30
0.0
 11
-10.5
 21
0.0
 31
0.0
  0
LINE
  5
171
330
168
100
AcDbEntity
  8
0
  6
Continuous
 62
     0
370
     0
100
AcDbLine
 10
0.0
 20
-5.0
 30
0.0
 11
0.0
 21
-10.5
 31
0.0
  0
LINE
  5
172
330
168
100
AcDbEntity
  8
0
  6
Continuous
 62
     0
370
     0
100
AcDbLine
 10
5.0
 20
0.0
 30
0.0
 11
10.5
 21
0.0
 31
0.0
  0
ENDBLK
  5
16A
330
168
100
AcDbEntity
  8
0
100
AcDbBlockEnd
  0
BLOCK
  5
175
330
174
100
AcDbEntity
  8
0
100
AcDbBlockBegin
  2
SW_CENTERMARKSYMBOL_1
 70
     0
 10
0.0
 20
0.0
 30
0.0
  3
SW_CENTERMARKSYMBOL_1
  1

  0
LINE
  5
177
330
174
100
AcDbEntity
  8
0
  6
Continuous
 62
     0
370
     0
100
AcDbLine
 10
0.0
 20
0.0
 30
0.0
 11
0.0
 21
2.5
 31
0.0
  0
LINE
  5
178
330
174
100
AcDbEntity
  8
0
  6
Continuous
 62
     0
370
     0
100
AcDbLine
 10
0.0
 20
0.0
 30
0.0
 11
-2.5
 21
0.0
 31
0.0
  0
LINE
  5
179
330
174
100
AcDbEntity
  8
0
  6
Continuous
 62
     0
370
     0
100
AcDbLine
 10
0.0
 20
0.0
 30
0.0
 11
0.0
 21
-2.5
 31
0.0
  0
LINE
  5
17A
330
174
100
AcDbEntity
  8
0
  6
Continuous
 62
     0
370
     0
100
AcDbLine
 10
0.0
 20
0.0
 30
0.0
 11
2.5
 21
0.0
 31
0.0
  0
LINE
  5
17B
330
174
100
AcDbEntity
  8
0
  6
Continuous
 62
     0
370
     0
100
AcDbLine
 10
0.0
 20
5.0
 30
0.0
 11
0.0
 21
10.5
 31
0.0
  0
LINE
  5
17C
330
174
100
AcDbEntity
  8
0
  6
Continuous
 62
     0
370
     0
100
AcDbLine
 10
-5.0
 20
0.0
 30
0.0
 11
-10.5
 21
0.0
 31
0.0
  0
LINE
  5
17D
330
174
100
AcDbEntity
  8
0
  6
Continuous
 62
     0
370
     0
100
AcDbLine
 10
0.0
 20
-5.0
 30
0.0
 11
0.0
 21
-10.5
 31
0.0
  0
LINE
  5
17E
330
174
100
AcDbEntity
  8
0
  6
Continuous
 62
     0
370
     0
100
AcDbLine
 10
5.0
 20
0.0
 30
0.0
 11
10.5
 21
0.0
 31
0.0
  0
ENDBLK
  5
176
330
174
100
AcDbEntity
  8
0
100
AcDbBlockEnd
  0
BLOCK
  5
181
330
180
100
AcDbEntity
  8
0
100
AcDbBlockBegin
  2
SW_CENTERMARKSYMBOL_2
 70
     0
 10
0.0
 20
0.0
 30
0.0
  3
SW_CENTERMARKSYMBOL_2
  1

  0
LINE
  5
183
330
180
100
AcDbEntity
  8
0
  6
Continuous
 62
     0
370
     0
100
AcDbLine
 10
0.0
 20
0.0
 30
0.0
 11
0.0
 21
2.5
 31
0.0
  0
LINE
  5
184
330
180
100
AcDbEntity
  8
0
  6
Continuous
 62
     0
370
     0
100
AcDbLine
 10
0.0
 20
0.0
 30
0.0
 11
-2.5
 21
0.0
 31
0.0
  0
LINE
  5
185
330
180
100
AcDbEntity
  8
0
  6
Continuous
 62
     0
370
     0
100
AcDbLine
 10
0.0
 20
0.0
 30
0.0
 11
0.0
 21
-2.5
 31
0.0
  0
LINE
  5
186
330
180
100
AcDbEntity
  8
0
  6
Continuous
 62
     0
370
     0
100
AcDbLine
 10
0.0
 20
0.0
 30
0.0
 11
2.5
 21
0.0
 31
0.0
  0
LINE
  5
187
330
180
100
AcDbEntity
  8
0
  6
Continuous
 62
     0
370
     0
100
AcDbLine
 10
0.0
 20
5.0
 30
0.0
 11
0.0
 21
10.5
 31
0.0
  0
LINE
  5
188
330
180
100
AcDbEntity
  8
0
  6
Continuous
 62
     0
370
     0
100
AcDbLine
 10
-5.0
 20
0.0
 30
0.0
 11
-10.5
 21
0.0
 31
0.0
  0
LINE
  5
189
330
180
100
AcDbEntity
  8
0
  6
Continuous
 62
     0
370
     0
100
AcDbLine
 10
0.0
 20
-5.0
 30
0.0
 11
0.0
 21
-10.5
 31
0.0
  0
LINE
  5
18A
330
180
100
AcDbEntity
  8
0
  6
Continuous
 62
     0
370
     0
100
AcDbLine
 10
5.0
 20
0.0
 30
0.0
 11
10.5
 21
0.0
 31
0.0
  0
ENDBLK
  5
182
330
180
100
AcDbEntity
  8
0
100
AcDbBlockEnd
  0
BLOCK
  5
18D
330
18C
100
AcDbEntity
  8
0
100
AcDbBlockBegin
  2
SW_CENTERMARKSYMBOL_3
 70
     0
 10
0.0
 20
0.0
 30
0.0
  3
SW_CENTERMARKSYMBOL_3
  1

  0
LINE
  5
18F
330
18C
100
AcDbEntity
  8
0
  6
Continuous
 62
     0
370
     0
100
AcDbLine
 10
0.0
 20
0.0
 30
0.0
 11
0.0
 21
2.5
 31
0.0
  0
LINE
  5
190
330
18C
100
AcDbEntity
  8
0
  6
Continuous
 62
     0
370
     0
100
AcDbLine
 10
0.0
 20
0.0
 30
0.0
 11
-2.5
 21
0.0
 31
0.0
  0
LINE
  5
191
330
18C
100
AcDbEntity
  8
0
  6
Continuous
 62
     0
370
     0
100
AcDbLine
 10
0.0
 20
0.0
 30
0.0
 11
0.0
 21
-2.5
 31
0.0
  0
LINE
  5
192
330
18C
100
AcDbEntity
  8
0
  6
Continuous
 62
     0
370
     0
100
AcDbLine
 10
0.0
 20
0.0
 30
0.0
 11
2.5
 21
0.0
 31
0.0
  0
LINE
  5
193
330
18C
100
AcDbEntity
  8
0
  6
Continuous
 62
     0
370
     0
100
AcDbLine
 10
0.0
 20
5.0
 30
0.0
 11
0.0
 21
10.5
 31
0.0
  0
LINE
  5
194
330
18C
100
AcDbEntity
  8
0
  6
Continuous
 62
     0
370
     0
100
AcDbLine
 10
-5.0
 20
0.0
 30
0.0
 11
-10.5
 21
0.0
 31
0.0
  0
LINE
  5
195
330
18C
100
AcDbEntity
  8
0
  6
Continuous
 62
     0
370
     0
100
AcDbLine
 10
0.0
 20
-5.0
 30
0.0
 11
0.0
 21
-10.5
 31
0.0
  0
LINE
  5
196
330
18C
100
AcDbEntity
  8
0
  6
Continuous
 62
     0
370
     0
100
AcDbLine
 10
5.0
 20
0.0
 30
0.0
 11
10.5
 21
0.0
 31
0.0
  0
ENDBLK
  5
18E
330
18C
100
AcDbEntity
  8
0
100
AcDbBlockEnd
  0
BLOCK
  5
1F6
330
1F5
100
AcDbEntity
  8
0
100
AcDbBlockBegin
  2
_D
 70
     0
 10
0.0
 20
0.0
 30
0.0
  3
_D
  1

  0
SOLID
  5
1F8
330
1F5
100
AcDbEntity
  8
0
  6
Continuous
 62
     7
370
    18
100
AcDbTrace
 10
271.0682922173
 20
322.6056515774
 30
0.0
 11
275.4682922173
 21
321.9287285005
 31
0.0
 12
275.4682922173
 22
323.2825746543
 32
0.0
 13
275.4682922173
 23
323.2825746543
 33
0.0
  0
SOLID
  5
1F9
330
1F5
100
AcDbEntity
  8
0
  6
Continuous
 62
     7
370
    18
100
AcDbTrace
 10
290.7682922173
 20
322.6056515774
 30
0.0
 11
286.3682922173
 21
323.2825746543
 31
0.0
 12
286.3682922173
 22
321.9287285005
 32
0.0
 13
286.3682922173
 23
321.9287285005
 33
0.0
  0
LINE
  5
1FA
330
1F5
100
AcDbEntity
  8
0
  6
Continuous
 62
     7
370
    18
100
AcDbLine
 10
271.0682922173
 20
305.2359458978
 30
0.0
 11
271.0682922173
 21
324.6056515774
 31
0.0
  0
LINE
  5
1FB
330
1F5
100
AcDbEntity
  8
0
  6
Continuous
 62
     7
370
    18
100
AcDbLine
 10
290.7682922173
 20
309.5359458978
 30
0.0
 11
290.7682922173
 21
324.6056515774
 31
0.0
  0
LINE
  5
1FC
330
1F5
100
AcDbEntity
  8
0
  6
Continuous
 62
     7
370
    18
100
AcDbLine
 10
271.0682922173
 20
322.6056515774
 30
0.0
 11
290.7682922173
 21
322.6056515774
 31
0.0
  0
MTEXT
  5
1FD
330
1F5
100
AcDbEntity
  8
0
  6
Continuous
 62
     7
370
    18
100
AcDbMText
 10
275.2288477312
 20
328.277549516
 30
0.0
 40
4.4
 41
0.0
 71
     1
 72
     1
  1
19,7
  7
SLDTEXTSTYLE0
 73
     1
 44
1.0
  0
ENDBLK
  5
1F7
330
1F5
100
AcDbEntity
  8
0
100
AcDbBlockEnd
  0
BLOCK
  5
201
330
200
100
AcDbEntity
  8
0
100
AcDbBlockBegin
  2
_D_1
 70
     0
 10
0.0
 20
0.0
 30
0.0
  3
_D_1
  1

  0
SOLID
  5
203
330
200
100
AcDbEntity
  8
0
  6
Continuous
 62
     7
370
    18
100
AcDbTrace
 10
197.2989105058
 20
315.0359458978
 30
0.0
 11
196.6219874289
 21
310.6359458978
 31
0.0
 12
197.9758335827
 22
310.6359458978
 32
0.0
 13
197.9758335827
 23
310.6359458978
 33
0.0
  0
SOLID
  5
204
330
200
100
AcDbEntity
  8
0
  6
Continuous
 62
     7
370
    18
100
AcDbTrace
 10
197.2989105058
 20
295.1359458978
 30
0.0
 11
197.9758335827
 21
299.5359458978
 31
0.0
 12
196.6219874289
 22
299.5359458978
 32
0.0
 13
196.6219874289
 23
299.5359458978
 33
0.0
  0
LINE
  5
205
330
200
100
AcDbEntity
  8
0
  6
Continuous
 62
     7
370
    18
100
AcDbLine
 10
235.0682922173
 20
315.0359458978
 30
0.0
 11
195.2989105058
 21
315.0359458978
 31
0.0
  0
LINE
  5
206
330
200
100
AcDbEntity
  8
0
  6
Continuous
 62
     7
370
    18
100
AcDbLine
 10
235.0588911405
 20
295.1359458978
 30
0.0
 11
195.2989105058
 21
295.1359458978
 31
0.0
  0
LINE
  5
207
330
200
100
AcDbEntity
  8
0
  6
Continuous
 62
     7
370
    18
100
AcDbLine
 10
197.2989105058
 20
315.0359458978
 30
0.0
 11
197.2989105058
 21
295.1359458978
 31
0.0
  0
MTEXT
  5
208
330
200
100
AcDbEntity
  8
0
  6
Continuous
 62
     7
370
    18
100
AcDbMText
 10
191.6270125672
 20
301.8348347629
 30
0.0
 40
4.4
 41
0.0
 71
     1
 72
     1
  1
20
  7
SLDTEXTSTYLE0
 11
-3.491481338843133E-15
 21
1.0
 31
0.0
 73
     1
 44
1.0
  0
ENDBLK
  5
202
330
200
100
AcDbEntity
  8
0
100
AcDbBlockEnd
  0
BLOCK
  5
20C
330
20B
100
AcDbEntity
  8
0
100
AcDbBlockBegin
  2
_D_2
 70
     0
 10
0.0
 20
0.0
 30
0.0
  3
_D_2
  1

  0
SOLID
  5
20E
330
20B
100
AcDbEntity
  8
0
  6
Continuous
 62
     7
370
    18
100
AcDbTrace
 10
290.7682922173
 20
276.4754635133
 30
0.0
 11
286.3682922173
 21
277.1523865903
 31
0.0
 12
286.3682922173
 22
275.7985404364
 32
0.0
 13
286.3682922173
 23
275.7985404364
 33
0.0
  0
SOLID
  5
20F
330
20B
100
AcDbEntity
  8
0
  6
Continuous
 62
     7
370
    18
100
AcDbTrace
 10
293.7682922173
 20
276.4754635133
 30
0.0
 11
298.1682922173
 21
275.7985404364
 31
0.0
 12
298.1682922173
 22
277.1523865903
 32
0.0
 13
298.1682922173
 23
277.1523865903
 33
0.0
  0
LINE
  5
210
330
20B
100
AcDbEntity
  8
0
  6
Continuous
 62
     7
370
    18
100
AcDbLine
 10
290.7682922173
 20
301.1359458978
 30
0.0
 11
290.7682922173
 21
274.4754635133
 31
0.0
  0
LINE
  5
211
330
20B
100
AcDbEntity
  8
0
  6
Continuous
 62
     7
370
    18
100
AcDbLine
 10
293.7682922173
 20
301.1359458978
 30
0.0
 11
293.7682922173
 21
274.4754635133
 31
0.0
  0
LINE
  5
212
330
20B
100
AcDbEntity
  8
0
  6
Continuous
 62
     7
370
    18
100
AcDbLine
 10
290.7682922173
 20
276.4754635133
 30
0.0
 11
282.3067537558
 21
276.4754635133
 31
0.0
  0
LINE
  5
213
330
20B
100
AcDbEntity
  8
0
  6
Continuous
 62
     7
370
    18
100
AcDbLine
 10
290.7682922173
 20
276.4754635133
 30
0.0
 11
293.7682922173
 21
276.4754635133
 31
0.0
  0
LINE
  5
214
330
20B
100
AcDbEntity
  8
0
  6
Continuous
 62
     7
370
    18
100
AcDbLine
 10
293.7682922173
 20
276.4754635133
 30
0.0
 11
306.5209715512
 21
276.4754635133
 31
0.0
  0
MTEXT
  5
215
330
20B
100
AcDbEntity
  8
0
  6
Continuous
 62
     7
370
    18
100
AcDbMText
 10
303.2698604163
 20
282.1473614519
 30
0.0
 40
4.4
 41
0.0
 71
     1
 72
     1
  1
3
  7
SLDTEXTSTYLE0
 73
     1
 44
1.0
  0
ENDBLK
  5
20D
330
20B
100
AcDbEntity
  8
0
100
AcDbBlockEnd
  0
BLOCK
  5
218
330
217
100
AcDbEntity
  8
0
100
AcDbBlockBegin
  2
_D_3
 70
     0
 10
0.0
 20
0.0
 30
0.0
  3
_D_3
  1

  0
SOLID
  5
21A
330
217
100
AcDbEntity
  8
0
  6
Continuous
 62
     7
370
    18
100
AcDbTrace
 10
234.7682922173
 20
332.096467885
 30
0.0
 11
239.1682922173
 21
331.419544808
 31
0.0
 12
239.1682922173
 22
332.7733909619
 32
0.0
 13
239.1682922173
 23
332.7733909619
 33
0.0
  0
SOLID
  5
21B
330
217
100
AcDbEntity
  8
0
  6
Continuous
 62
     7
370
    18
100
AcDbTrace
 10
349.7682922173
 20
332.096467885
 30
0.0
 11
345.3682922173
 21
332.7733909619
 31
0.0
 12
345.3682922173
 22
331.419544808
 32
0.0
 13
345.3682922173
 23
331.419544808
 33
0.0
  0
LINE
  5
21C
330
217
100
AcDbEntity
  8
0
  6
Continuous
 62
     7
370
    18
100
AcDbLine
 10
234.7682922173
 20
314.7359458978
 30
0.0
 11
234.7682922173
 21
334.096467885
 31
0.0
  0
LINE
  5
21D
330
217
100
AcDbEntity
  8
0
  6
Continuous
 62
     7
370
    18
100
AcDbLine
 10
349.7682922173
 20
314.7359458978
 30
0.0
 11
349.7682922173
 21
334.096467885
 31
0.0
  0
LINE
  5
21E
330
217
100
AcDbEntity
  8
0
  6
Continuous
 62
     7
370
    18
100
AcDbLine
 10
234.7682922173
 20
332.096467885
 30
0.0
 11
349.7682922173
 21
332.096467885
 31
0.0
  0
MTEXT
  5
21F
330
217
100
AcDbEntity
  8
0
  6
Continuous
 62
     7
370
    18
100
AcDbMText
 10
287.391625515
 20
337.7683658235
 30
0.0
 40
4.4
 41
0.0
 71
     1
 72
     1
  1
115
  7
SLDTEXTSTYLE0
 73
     1
 44
1.0
  0
ENDBLK
  5
219
330
217
100
AcDbEntity
  8
0
100
AcDbBlockEnd
  0
BLOCK
  5
222
330
221
100
AcDbEntity
  8
0
100
AcDbBlockBegin
  2
_D_4
 70
     0
 10
0.0
 20
0.0
 30
0.0
  3
_D_4
  1

  0
SOLID
  5
224
330
221
100
AcDbEntity
  8
0
  6
Continuous
 62
     7
370
    18
100
AcDbTrace
 10
222.8318693874
 20
309.3359458978
 30
0.0
 11
223.5087924644
 21
313.7359458978
 31
0.0
 12
222.1549463105
 22
313.7359458978
 32
0.0
 13
222.1549463105
 23
313.7359458978
 33
0.0
  0
SOLID
  5
225
330
221
100
AcDbEntity
  8
0
  6
Continuous
 62
     7
370
    18
100
AcDbTrace
 10
222.8318693874
 20
301.3359458978
 30
0.0
 11
222.1549463105
 21
296.9359458978
 31
0.0
 12
223.5087924644
 22
296.9359458978
 32
0.0
 13
223.5087924644
 23
296.9359458978
 33
0.0
  0
LINE
  5
226
330
221
100
AcDbEntity
  8
0
  6
Continuous
 62
     7
370
    18
100
AcDbLine
 10
222.8318693874
 20
309.3359458978
 30
0.0
 11
222.8318693874
 21
329.9877757047
 31
0.0
  0
LINE
  5
227
330
221
100
AcDbEntity
  8
0
  6
Continuous
 62
     7
370
    18
100
AcDbLine
 10
222.8318693874
 20
309.3359458978
 30
0.0
 11
222.8318693874
 21
301.3359458978
 31
0.0
  0
LINE
  5
228
330
221
100
AcDbEntity
  8
0
  6
Continuous
 62
     7
370
    18
100
AcDbLine
 10
222.8318693874
 20
301.3359458978
 30
0.0
 11
222.8318693874
 21
292.8744074362
 31
0.0
  0
MTEXT
  5
229
330
221
100
AcDbEntity
  8
0
  6
Continuous
 62
     7
370
    18
100
AcDbMText
 10
217.1599714489
 20
326.7366645698
 30
0.0
 40
4.4
 41
0.0
 71
     1
 72
     1
  1
8
  7
SLDTEXTSTYLE0
 11
-3.491481338843133E-15
 21
1.0
 31
0.0
 73
     1
 44
1.0
  0
ENDBLK
  5
223
330
221
100
AcDbEntity
  8
0
100
AcDbBlockEnd
  0
BLOCK
  5
22B
330
22A
100
AcDbEntity
  8
0
100
AcDbBlockBegin
  2
SW_CENTERMARKSYMBOL_4
 70
     0
 10
0.0
 20
0.0
 30
0.0
  3
SW_CENTERMARKSYMBOL_4
  1

  0
LINE
  5
22D
330
22A
100
AcDbEntity
  8
0
  6
Continuous
 62
     0
370
     0
100
AcDbLine
 10
0.0
 20
0.0
 30
0.0
 11
0.0
 21
2.5
 31
0.0
  0
LINE
  5
22E
330
22A
100
AcDbEntity
  8
0
  6
Continuous
 62
     0
370
     0
100
AcDbLine
 10
0.0
 20
0.0
 30
0.0
 11
-2.5
 21
0.0
 31
0.0
  0
LINE
  5
22F
330
22A
100
AcDbEntity
  8
0
  6
Continuous
 62
     0
370
     0
100
AcDbLine
 10
0.0
 20
0.0
 30
0.0
 11
0.0
 21
-2.5
 31
0.0
  0
LINE
  5
230
330
22A
100
AcDbEntity
  8
0
  6
Continuous
 62
     0
370
     0
100
AcDbLine
 10
0.0
 20
0.0
 30
0.0
 11
2.5
 21
0.0
 31
0.0
  0
LINE
  5
231
330
22A
100
AcDbEntity
  8
0
  6
Continuous
 62
     0
370
     0
100
AcDbLine
 10
0.0
 20
5.0
 30
0.0
 11
0.0
 21
7.5
 31
0.0
  0
LINE
  5
232
330
22A
100
AcDbEntity
  8
0
  6
Continuous
 62
     0
370
     0
100
AcDbLine
 10
-5.0
 20
0.0
 30
0.0
 11
-7.5
 21
0.0
 31
0.0
  0
LINE
  5
233
330
22A
100
AcDbEntity
  8
0
  6
Continuous
 62
     0
370
     0
100
AcDbLine
 10
0.0
 20
-5.0
 30
0.0
 11
0.0
 21
-7.5
 31
0.0
  0
LINE
  5
234
330
22A
100
AcDbEntity
  8
0
  6
Continuous
 62
     0
370
     0
100
AcDbLine
 10
5.0
 20
0.0
 30
0.0
 11
7.5
 21
0.0
 31
0.0
  0
ENDBLK
  5
22C
330
22A
100
AcDbEntity
  8
0
100
AcDbBlockEnd
  0
ENDSEC
  0
SECTION
  2
ENTITIES
  0
LINE
  5
7C
330
1F
100
AcDbEntity
  8
0
  6
Continuous
 62
     7
370
    25
100
AcDbLine
 10
262.5682937491
 20
417.9482463886
 30
0.0
 11
262.5682937491
 21
417.0482451235
 31
0.0
  0
LINE
  5
7D
330
1F
100
AcDbEntity
  8
0
  6
Continuous
 62
     7
370
    25
100
AcDbLine
 10
279.5682928103
 20
417.0482451235
 30
0.0
 11
279.5682928103
 21
417.9482463886
 31
0.0
  0
ARC
  5
7E
330
1F
100
AcDbEntity
  8
0
  6
Continuous
 62
     7
370
    25
100
AcDbCircle
 10
279.0682922173
 20
417.0482460533
 30
0.0
 40
0.5000000000000568
100
AcDbArc
 50
270.0
 51
0.0
  0
ARC
  5
7F
330
1F
100
AcDbEntity
  8
0
  6
Continuous
 62
     7
370
    25
100
AcDbCircle
 10
263.0682922173
 20
417.0482460533
 30
0.0
 40
0.5000000000000568
100
AcDbArc
 50
180.0
 51
270.0
  0
ARC
  5
80
330
1F
100
AcDbEntity
  8
0
  6
Continuous
 62
     7
370
    25
100
AcDbCircle
 10
263.0682922173
 20
448.8482460533
 30
0.0
 40
0.5
100
AcDbArc
 50
90.0
 51
180.0
  0
ARC
  5
81
330
1F
100
AcDbEntity
  8
0
  6
Continuous
 62
     7
370
    25
100
AcDbCircle
 10
279.0682922173
 20
448.8482460533
 30
0.0
 40
0.5
100
AcDbArc
 50
0.0
 51
90.0
  0
LINE
  5
82
330
1F
100
AcDbEntity
  8
0
  6
Continuous
 62
     7
370
    25
100
AcDbLine
 10
279.5682928103
 20
447.9482457181
 30
0.0
 11
279.5682928103
 21
448.8482469832
 31
0.0
  0
LINE
  5
83
330
1F
100
AcDbEntity
  8
0
  6
Continuous
 62
     7
370
    25
100
AcDbLine
 10
262.5682937491
 20
448.8482469832
 30
0.0
 11
262.5682937491
 21
447.9482457181
 31
0.0
  0
LINE
  5
84
330
1F
100
AcDbEntity
  8
0
  6
Continuous
 62
     7
370
    25
100
AcDbLine
 10
266.0682915288
 20
449.5253315334
 30
0.0
 11
266.0682915288
 21
449.3482461338
 31
0.0
  0
LINE
  5
85
330
1F
100
AcDbEntity
  8
0
  6
Continuous
 62
     7
370
    25
100
AcDbLine
 10
276.0682913053
 20
449.3482461338
 30
0.0
 11
276.0682913053
 21
449.5253315334
 31
0.0
  0
LINE
  5
86
330
1F
100
AcDbEntity
  8
0
  6
Continuous
 62
     7
370
    25
100
AcDbLine
 10
266.0682915288
 20
416.5482459729
 30
0.0
 11
266.0682915288
 21
416.3711605733
 31
0.0
  0
LINE
  5
87
330
1F
100
AcDbEntity
  8
0
  6
Continuous
 62
     7
370
    25
100
AcDbLine
 10
276.0682913053
 20
416.3711605733
 30
0.0
 11
276.0682913053
 21
416.5482459729
 31
0.0
  0
LINE
  5
88
330
1F
100
AcDbEntity
  8
0
  6
Continuous
 62
     7
370
    25
100
AcDbLine
 10
290.768292411
 20
407.9482456808
 30
0.0
 11
290.7588911753
 21
407.9482456808
 31
0.0
  0
LINE
  5
89
330
1F
100
AcDbEntity
  8
0
  6
Continuous
 62
     7
370
    25
100
AcDbLine
 10
290.7588911753
 20
457.9482464259
 30
0.0
 11
290.768292411
 21
457.9482464259
 31
0.0
  0
LINE
  5
8A
330
1F
100
AcDbEntity
  8
0
  6
Continuous
 62
     7
370
    25
100
AcDbLine
 10
260.7682930815
 20
417.9482463886
 30
0.0
 11
259.5682913947
 21
417.9482463886
 31
0.0
  0
LINE
  5
8B
330
1F
100
AcDbEntity
  8
0
  6
Continuous
 62
     7
370
    25
100
AcDbLine
 10
259.5682913947
 20
447.9482457181
 30
0.0
 11
259.5682913947
 21
417.9482463886
 31
0.0
  0
LINE
  5
8C
330
1F
100
AcDbEntity
  8
0
  6
Continuous
 62
     7
370
    25
100
AcDbLine
 10
260.7682930815
 20
447.9482457181
 30
0.0
 11
259.5682913947
 21
447.9482457181
 31
0.0
  0
LINE
  5
8D
330
1F
100
AcDbEntity
  8
0
  6
Continuous
 62
     7
370
    25
100
AcDbLine
 10
260.7682930815
 20
417.9482463886
 30
0.0
 11
260.7682930815
 21
447.9482457181
 31
0.0
  0
LINE
  5
8E
330
1F
100
AcDbEntity
  8
0
  6
Continuous
 62
     7
370
    25
100
AcDbLine
 10
259.0682903815
 20
417.9482463886
 30
0.0
 11
259.0682903815
 21
447.9482457181
 31
0.0
  0
LINE
  5
8F
330
1F
100
AcDbEntity
  8
0
  6
Continuous
 62
     7
370
    25
100
AcDbLine
 10
259.5682913947
 20
417.9482463886
 30
0.0
 11
259.0682903815
 21
417.9482463886
 31
0.0
  0
LINE
  5
90
330
1F
100
AcDbEntity
  8
0
  6
Continuous
 62
     7
370
    25
100
AcDbLine
 10
259.0682903815
 20
447.9482457181
 30
0.0
 11
259.5682913947
 21
447.9482457181
 31
0.0
  0
LINE
  5
91
330
1F
100
AcDbEntity
  8
0
  6
Continuous
 62
     7
370
    25
100
AcDbLine
 10
259.0682903815
 20
417.9482463886
 30
0.0
 11
259.058891474
 21
417.9482463886
 31
0.0
  0
LINE
  5
92
330
1F
100
AcDbEntity
  8
0
  6
Continuous
 62
     7
370
    25
100
AcDbLine
 10
259.058891474
 20
447.9482457181
 30
0.0
 11
259.0682903815
 21
447.9482457181
 31
0.0
  0
LINE
  5
93
330
1F
100
AcDbEntity
  8
0
  6
Continuous
 62
     7
370
    25
100
AcDbLine
 10
264.1160810876
 20
416.5482459729
 30
0.0
 11
263.0682910371
 21
416.5482459729
 31
0.0
  0
LINE
  5
94
330
1F
100
AcDbEntity
  8
0
  6
Continuous
 62
     7
370
    25
100
AcDbLine
 10
279.0682917971
 20
416.5482459729
 30
0.0
 11
264.1160810876
 21
416.5482459729
 31
0.0
  0
LINE
  5
95
330
1F
100
AcDbEntity
  8
0
  6
Continuous
 62
     7
370
    25
100
AcDbLine
 10
275.1815977085
 20
449.3482461338
 30
0.0
 11
279.0682917971
 21
449.3482461338
 31
0.0
  0
LINE
  5
96
330
1F
100
AcDbEntity
  8
0
  6
Continuous
 62
     7
370
    25
100
AcDbLine
 10
263.0682910371
 20
449.3482461338
 30
0.0
 11
275.1815977085
 21
449.3482461338
 31
0.0
  0
LINE
  5
97
330
1F
100
AcDbEntity
  8
0
  6
Continuous
 62
     7
370
    25
100
AcDbLine
 10
274.2381679404
 20
449.5482457941
 30
0.0
 11
274.3220782417
 21
449.4482459639
 31
0.0
  0
LWPOLYLINE
  5
98
330
1F
100
AcDbEntity
  8
0
  6
Continuous
 62
     7
370
    25
100
AcDbPolyline
 90
        3
 70
   128
 43
0.0
 10
274.3220782417
 20
449.4482459639
 10
274.4268650699
 20
449.5361739909
 10
274.441252141
 20
449.5482457941
  0
ELLIPSE
  5
99
330
1F
100
AcDbEntity
  8
0
  6
Continuous
 62
     7
370
    25
100
AcDbEllipse
 10
271.0682922173
 20
446.7179959037
 30
0.0
 11
4.879723588226341
 21
1.337683454342482
 31
0.0
210
0.0
220
0.0
230
1.0
 40
0.8149092985
 41
0.3840780611909816
 42
0.4159090211079075
  0
ELLIPSE
  5
9A
330
1F
100
AcDbEntity
  8
0
  6
Continuous
 62
     7
370
    25
100
AcDbEllipse
 10
271.0682922173
 20
453.3259565226
 30
0.0
 11
-1.594189062466341
 21
5.815428117135468
 31
0.0
210
0.0
220
0.0
230
1.0
 40
0.8149092985
 41
3.78402457204814
 42
3.805923162611728
  0
ELLIPSE
  5
9B
330
1F
100
AcDbEntity
  8
0
  6
Continuous
 62
     7
370
    25
100
AcDbEllipse
 10
271.0682922173
 20
453.3259565226
 30
0.0
 11
-4.847002720836599
 21
5.872002103371244
 31
0.0
210
0.0
220
0.0
230
1.0
 40
0.2090295474
 41
3.83294818685318
 42
3.854484386895616
  0
ELLIPSE
  5
9C
330
1F
100
AcDbEntity
  8
0
  6
Continuous
 62
     7
370
    25
100
AcDbEllipse
 10
271.0682922173
 20
446.7179959037
 30
0.0
 11
4.927194799211065
 21
4.067118195369346
 31
0.0
210
0.0
220
0.0
230
1.0
 40
0.2090295474
 41
5.668989431979064
 42
5.700820391896035
  0
ELLIPSE
  5
9D
330
1F
100
AcDbEntity
  8
0
  6
Continuous
 62
     7
370
    25
100
AcDbEllipse
 10
271.0682922173
 20
446.7179959037
 30
0.0
 11
4.647911249445428
 21
3.28935811682561
 31
0.0
210
0.0
220
0.0
230
1.0
 40
0.5603141192
 41
6.090649239929482
 42
6.122480199846406
  0
ELLIPSE
  5
9E
330
1F
100
AcDbEntity
  8
0
  6
Continuous
 62
     7
370
    25
100
AcDbEllipse
 10
271.0682922173
 20
453.3259565226
 30
0.0
 11
-3.920104353055705
 21
5.539164929585581
 31
0.0
210
0.0
220
0.0
230
1.0
 40
0.5603141192
 41
3.626289464085665
 42
3.648188054649252
  0
ELLIPSE
  5
9F
330
1F
100
AcDbEntity
  8
0
  6
Continuous
 62
     7
370
    25
100
AcDbEllipse
 10
271.0682922173
 20
453.3259565226
 30
0.0
 11
-4.353586204954355
 21
5.649449973844981
 31
0.0
210
0.0
220
0.0
230
1.0
 40
0.4352494363
 41
3.680187263770592
 42
3.702085854334195
  0
ELLIPSE
  5
A0
330
1F
100
AcDbEntity
  8
0
  6
Continuous
 62
     7
370
    25
100
AcDbEllipse
 10
271.0682922173
 20
446.7179959037
 30
0.0
 11
4.740451389407838
 21
3.653092578875772
 31
0.0
210
0.0
220
0.0
230
1.0
 40
0.4352494363
 41
5.935107529375111
 42
5.95956470288912
  0
ELLIPSE
  5
A1
330
1F
100
AcDbEntity
  8
0
  6
Continuous
 62
     7
370
    25
100
AcDbEllipse
 10
271.0682922173
 20
446.7179959037
 30
0.0
 11
4.740451389407838
 21
-3.653092578875772
 31
0.0
210
0.0
220
0.0
230
1.0
 40
0.4352494363
 41
3.465213257880328
 42
3.489670431394336
  0
ELLIPSE
  5
A2
330
1F
100
AcDbEntity
  8
0
  6
Continuous
 62
     7
370
    25
100
AcDbEllipse
 10
271.0682922173
 20
453.3259565226
 30
0.0
 11
4.353586204954468
 21
5.64944997384498
 31
0.0
210
0.0
220
0.0
230
1.0
 40
0.4352494363
 41
2.581099452845415
 42
2.602998043409007
  0
ELLIPSE
  5
A3
330
1F
100
AcDbEntity
  8
0
  6
Continuous
 62
     7
370
    25
100
AcDbEllipse
 10
271.0682922173
 20
453.3259565226
 30
0.0
 11
3.920104353055592
 21
5.539164929585638
 31
0.0
210
0.0
220
0.0
230
1.0
 40
0.5603141192
 41
2.634997252530341
 42
2.656895843093939
  0
ELLIPSE
  5
A4
330
1F
100
AcDbEntity
  8
0
  6
Continuous
 62
     7
370
    25
100
AcDbEllipse
 10
271.0682922173
 20
446.7179959037
 30
0.0
 11
4.647911249445428
 21
-3.28935811682544
 31
0.0
210
0.0
220
0.0
230
1.0
 40
0.5603141192
 41
3.302297760922976
 42
3.334128720839914
  0
ELLIPSE
  5
A5
330
1F
100
AcDbEntity
  8
0
  6
Continuous
 62
     7
370
    25
100
AcDbEllipse
 10
271.0682922173
 20
446.7179959037
 30
0.0
 11
4.927194799211065
 21
-4.067118195369289
 31
0.0
210
0.0
220
0.0
230
1.0
 40
0.2090295474
 41
3.723957568873427
 42
3.755788528790346
  0
ELLIPSE
  5
A6
330
1F
100
AcDbEntity
  8
0
  6
Continuous
 62
     7
370
    25
100
AcDbEllipse
 10
271.0682922173
 20
453.3259565226
 30
0.0
 11
4.847002720836656
 21
5.872002103371187
 31
0.0
210
0.0
220
0.0
230
1.0
 40
0.2090295474
 41
2.428700920283542
 42
2.45023712032644
  0
ELLIPSE
  5
A7
330
1F
100
AcDbEntity
  8
0
  6
Continuous
 62
     7
370
    25
100
AcDbEllipse
 10
271.0682922173
 20
453.3259565226
 30
0.0
 11
1.594189062466114
 21
5.815428117135525
 31
0.0
210
0.0
220
0.0
230
1.0
 40
0.8149092985
 41
2.477262144567845
 42
2.499160735131448
  0
ELLIPSE
  5
A8
330
1F
100
AcDbEntity
  8
0
  6
Continuous
 62
     7
370
    25
100
AcDbEllipse
 10
271.0682922173
 20
446.7179959037
 30
0.0
 11
4.879723588226398
 21
-1.337683454342198
 31
0.0
210
0.0
220
0.0
230
1.0
 40
0.8149092984999999
 41
2.72568363248182
 42
2.757514592398757
  0
LWPOLYLINE
  5
A9
330
1F
100
AcDbEntity
  8
0
  6
Continuous
 62
     7
370
    25
100
AcDbPolyline
 90
        3
 70
   128
 43
0.0
 10
267.6953306932
 20
449.5482457941
 10
267.7097196269
 20
449.5361739909
 10
267.8145064551
 20
449.4482459639
  0
LINE
  5
AA
330
1F
100
AcDbEntity
  8
0
  6
Continuous
 62
     7
370
    25
100
AcDbLine
 10
267.8145064551
 20
449.4482459639
 30
0.0
 11
267.8984167564
 21
449.5482457941
 31
0.0
  0
ELLIPSE
  5
AB
330
1F
100
AcDbEntity
  8
0
  6
Continuous
 62
     7
370
    25
100
AcDbEllipse
 10
271.0682922173
 20
453.3259565226
 30
0.0
 11
-3.20987281236438
 21
5.527238441459701
 31
0.0
210
0.0
220
0.0
230
1.0
 40
0.6935886196
 41
1.874567298880179
 42
1.896465889443775
  0
ELLIPSE
  5
AC
330
1F
100
AcDbEntity
  8
0
  6
Continuous
 62
     7
370
    25
100
AcDbEllipse
 10
271.0682922173
 20
446.7179959037
 30
0.0
 11
4.63790373765778
 21
2.693403092981044
 31
0.0
210
0.0
220
0.0
230
1.0
 40
0.6935886196
 41
1.701441240445218
 42
1.735940726232418
  0
ELLIPSE
  5
AD
330
1F
100
AcDbEntity
  8
0
  6
Continuous
 62
     7
370
    25
100
AcDbEllipse
 10
271.0682922173
 20
446.7179959037
 30
0.0
 11
4.927194799211065
 21
-4.067118195369289
 31
0.0
210
0.0
220
0.0
230
1.0
 40
0.2090295474
 41
2.031358099847753
 42
2.063189059764681
  0
ELLIPSE
  5
AE
330
1F
100
AcDbEntity
  8
0
  6
Continuous
 62
     7
370
    25
100
AcDbEllipse
 10
271.0682922173
 20
453.3259565226
 30
0.0
 11
4.847002720836656
 21
5.872002103371187
 31
0.0
210
0.0
220
0.0
230
1.0
 40
0.2090295474
 41
4.174667549269048
 42
4.196566139832612
  0
ELLIPSE
  5
AF
330
1F
100
AcDbEntity
  8
0
  6
Continuous
 62
     7
370
    25
100
AcDbEllipse
 10
271.0682922173
 20
453.3259565226
 30
0.0
 11
-4.353586204954412
 21
5.649449973844981
 31
0.0
210
0.0
220
0.0
230
1.0
 40
0.4352494363
 41
1.933858244264426
 42
1.955756834828022
  0
ELLIPSE
  5
B0
330
1F
100
AcDbEntity
  8
0
  6
Continuous
 62
     7
370
    25
100
AcDbEllipse
 10
271.0682922173
 20
446.7179959037
 30
0.0
 11
4.740451389407838
 21
3.653092578875828
 31
0.0
210
0.0
220
0.0
230
1.0
 40
0.4352494363
 41
1.353008345139536
 42
1.376352651138042
  0
ELLIPSE
  5
B1
330
1F
100
AcDbEntity
  8
0
  6
Continuous
 62
     7
370
    25
100
AcDbEllipse
 10
271.0682922173
 20
446.7179959037
 30
0.0
 11
4.740451389407838
 21
-3.653092578875772
 31
0.0
210
0.0
220
0.0
230
1.0
 40
0.4352494363
 41
1.765240002451745
 42
1.788584308450241
  0
ELLIPSE
  5
B2
330
1F
100
AcDbEntity
  8
0
  6
Continuous
 62
     7
370
    25
100
AcDbEllipse
 10
271.0682922173
 20
453.3259565226
 30
0.0
 11
4.353586204954412
 21
5.649449973844981
 31
0.0
210
0.0
220
0.0
230
1.0
 40
0.4352494363
 41
4.327428472351587
 42
4.349327062915171
  0
ELLIPSE
  5
B3
330
1F
100
AcDbEntity
  8
0
  6
Continuous
 62
     7
370
    25
100
AcDbEllipse
 10
271.0682922173
 20
453.3259565226
 30
0.0
 11
-4.847002720836599
 21
5.872002103371244
 31
0.0
210
0.0
220
0.0
230
1.0
 40
0.2090295474
 41
2.086619167347017
 42
2.108517757910595
  0
ELLIPSE
  5
B4
330
1F
100
AcDbEntity
  8
0
  6
Continuous
 62
     7
370
    25
100
AcDbEllipse
 10
271.0682922173
 20
446.7179959037
 30
0.0
 11
4.927194799211065
 21
4.067118195369346
 31
0.0
210
0.0
220
0.0
230
1.0
 40
0.2090295474
 41
1.07840359382508
 42
1.110234553742
  0
ELLIPSE
  5
B5
330
1F
100
AcDbEntity
  8
0
  6
Continuous
 62
     7
370
    25
100
AcDbEllipse
 10
271.0682922173
 20
446.7179959037
 30
0.0
 11
4.63790373765778
 21
-2.69340309298093
 31
0.0
210
0.0
220
0.0
230
1.0
 40
0.6935886196
 41
1.405651927357343
 42
1.440151413144544
  0
ELLIPSE
  5
B6
330
1F
100
AcDbEntity
  8
0
  6
Continuous
 62
     7
370
    25
100
AcDbEllipse
 10
271.0682922173
 20
453.3259565226
 30
0.0
 11
3.209872812364324
 21
5.527238441459644
 31
0.0
210
0.0
220
0.0
230
1.0
 40
0.6935886196
 41
4.386719417735843
 42
4.408618008299425
  0
ELLIPSE
  5
B7
330
1F
100
AcDbEntity
  8
0
  6
Continuous
 62
     7
370
    25
100
AcDbEllipse
 10
271.0682922173
 20
419.178496203
 30
0.0
 11
4.63790373765778
 21
2.69340309298093
 31
0.0
210
0.0
220
0.0
230
1.0
 40
0.6935886196
 41
4.843033894035022
 42
4.877533379822253
  0
ELLIPSE
  5
B8
330
1F
100
AcDbEntity
  8
0
  6
Continuous
 62
     7
370
    25
100
AcDbEllipse
 10
271.0682922173
 20
419.178496203
 30
0.0
 11
4.927194799211065
 21
-4.067118195369346
 31
0.0
210
0.0
220
0.0
230
1.0
 40
0.2090295474
 41
5.172950753437626
 42
5.20478171335454
  0
ELLIPSE
  5
B9
330
1F
100
AcDbEntity
  8
0
  6
Continuous
 62
     7
370
    25
100
AcDbEllipse
 10
271.0682922173
 20
412.5705355841
 30
0.0
 11
4.847002720836657
 21
5.872002103371131
 31
0.0
210
0.0
220
0.0
230
1.0
 40
0.2090295474
 41
1.03307489567922
 42
1.054973486242803
  0
ELLIPSE
  5
BA
330
1F
100
AcDbEntity
  8
0
  6
Continuous
 62
     7
370
    25
100
AcDbEllipse
 10
271.0682922173
 20
412.5705355841
 30
0.0
 11
-4.353586204954411
 21
5.649449973844924
 31
0.0
210
0.0
220
0.0
230
1.0
 40
0.4352494363
 41
5.075450897854227
 42
5.097349488417812
  0
ELLIPSE
  5
BB
330
1F
100
AcDbEntity
  8
0
  6
Continuous
 62
     7
370
    25
100
AcDbEllipse
 10
271.0682922173
 20
419.178496203
 30
0.0
 11
4.740451389407781
 21
3.653092578875772
 31
0.0
210
0.0
220
0.0
230
1.0
 40
0.4352494363
 41
4.494600998729336
 42
4.517945304727844
  0
ELLIPSE
  5
BC
330
1F
100
AcDbEntity
  8
0
  6
Continuous
 62
     7
370
    25
100
AcDbEllipse
 10
271.0682922173
 20
419.178496203
 30
0.0
 11
4.740451389407838
 21
-3.653092578875828
 31
0.0
210
0.0
220
0.0
230
1.0
 40
0.4352494363
 41
4.906832656041558
 42
4.930176962040076
  0
ELLIPSE
  5
BD
330
1F
100
AcDbEntity
  8
0
  6
Continuous
 62
     7
370
    25
100
AcDbEllipse
 10
271.0682922173
 20
412.5705355841
 30
0.0
 11
4.353586204954468
 21
5.649449973844924
 31
0.0
210
0.0
220
0.0
230
1.0
 40
0.4352494363
 41
1.18583581876178
 42
1.207734409325364
  0
ELLIPSE
  5
BE
330
1F
100
AcDbEntity
  8
0
  6
Continuous
 62
     7
370
    25
100
AcDbEllipse
 10
271.0682922173
 20
412.5705355841
 30
0.0
 11
-4.847002720836599
 21
5.87200210337113
 31
0.0
210
0.0
220
0.0
230
1.0
 40
0.2090295474
 41
5.228211820936812
 42
5.250110411500378
  0
ELLIPSE
  5
BF
330
1F
100
AcDbEntity
  8
0
  6
Continuous
 62
     7
370
    25
100
AcDbEllipse
 10
271.0682922173
 20
419.178496203
 30
0.0
 11
4.927194799211065
 21
4.067118195369346
 31
0.0
210
0.0
220
0.0
230
1.0
 40
0.2090295474
 41
4.219996247414898
 42
4.25182720733179
  0
ELLIPSE
  5
C0
330
1F
100
AcDbEntity
  8
0
  6
Continuous
 62
     7
370
    25
100
AcDbEllipse
 10
271.0682922173
 20
419.178496203
 30
0.0
 11
4.63790373765778
 21
-2.693403092981044
 31
0.0
210
0.0
220
0.0
230
1.0
 40
0.6935886196
 41
4.547244580947175
 42
4.58174406673439
  0
ELLIPSE
  5
C1
330
1F
100
AcDbEntity
  8
0
  6
Continuous
 62
     7
370
    25
100
AcDbEllipse
 10
271.0682922173
 20
412.5705355841
 30
0.0
 11
3.20987281236438
 21
5.527238441459644
 31
0.0
210
0.0
220
0.0
230
1.0
 40
0.6935886196
 41
1.245126764146025
 42
1.267025354709608
  0
LINE
  5
C2
330
1F
100
AcDbEntity
  8
0
  6
Continuous
 62
     7
370
    25
100
AcDbLine
 10
267.8984167564
 20
416.3482463126
 30
0.0
 11
267.8145064551
 21
416.4482461428
 31
0.0
  0
LWPOLYLINE
  5
C3
330
1F
100
AcDbEntity
  8
0
  6
Continuous
 62
     7
370
    25
100
AcDbPolyline
 90
        3
 70
   128
 43
0.0
 10
267.8145064551
 20
416.4482461428
 10
267.7097196269
 20
416.3603181158
 10
267.6953306932
 20
416.3482463126
  0
ELLIPSE
  5
C4
330
1F
100
AcDbEntity
  8
0
  6
Continuous
 62
     7
370
    25
100
AcDbEllipse
 10
271.0682922173
 20
419.178496203
 30
0.0
 11
4.8797235882264
 21
1.337683454342255
 31
0.0
210
0.0
220
0.0
230
1.0
 40
0.8149092985000002
 41
3.525670714780829
 42
3.557501674697747
  0
ELLIPSE
  5
C5
330
1F
100
AcDbEntity
  8
0
  6
Continuous
 62
     7
370
    25
100
AcDbEllipse
 10
271.0682922173
 20
412.5705355841
 30
0.0
 11
-1.594189062466171
 21
5.815428117135468
 31
0.0
210
0.0
220
0.0
230
1.0
 40
0.8149092984999999
 41
0.642431918458342
 42
0.6643305090219296
  0
ELLIPSE
  5
C6
330
1F
100
AcDbEntity
  8
0
  6
Continuous
 62
     7
370
    25
100
AcDbEllipse
 10
271.0682922173
 20
412.5705355841
 30
0.0
 11
-4.847002720836599
 21
5.87200210337113
 31
0.0
210
0.0
220
0.0
230
1.0
 40
0.2090295474
 41
0.6913555332633289
 42
0.7128917333053356
  0
ELLIPSE
  5
C7
330
1F
100
AcDbEntity
  8
0
  6
Continuous
 62
     7
370
    25
100
AcDbEllipse
 10
271.0682922173
 20
419.178496203
 30
0.0
 11
4.927194799211065
 21
4.067118195369346
 31
0.0
210
0.0
220
0.0
230
1.0
 40
0.2090295474
 41
2.527396778389214
 42
2.559227738306133
  0
ELLIPSE
  5
C8
330
1F
100
AcDbEntity
  8
0
  6
Continuous
 62
     7
370
    25
100
AcDbEllipse
 10
271.0682922173
 20
419.178496203
 30
0.0
 11
4.647911249445428
 21
3.289358116825496
 31
0.0
210
0.0
220
0.0
230
1.0
 40
0.5603141192
 41
2.949056586339685
 42
2.980887546256608
  0
ELLIPSE
  5
C9
330
1F
100
AcDbEntity
  8
0
  6
Continuous
 62
     7
370
    25
100
AcDbEllipse
 10
271.0682922173
 20
412.5705355841
 30
0.0
 11
-3.920104353055649
 21
5.539164929585581
 31
0.0
210
0.0
220
0.0
230
1.0
 40
0.5603141192
 41
0.4846968104958483
 42
0.5065954010594355
  0
ELLIPSE
  5
CA
330
1F
100
AcDbEntity
  8
0
  6
Continuous
 62
     7
370
    25
100
AcDbEllipse
 10
271.0682922173
 20
412.5705355841
 30
0.0
 11
-4.353586204954411
 21
5.649449973844924
 31
0.0
210
0.0
220
0.0
230
1.0
 40
0.4352494363
 41
0.5385946101807718
 42
0.5604932007443633
  0
ELLIPSE
  5
CB
330
1F
100
AcDbEntity
  8
0
  6
Continuous
 62
     7
370
    25
100
AcDbEllipse
 10
271.0682922173
 20
419.178496203
 30
0.0
 11
4.740451389407838
 21
3.653092578875772
 31
0.0
210
0.0
220
0.0
230
1.0
 40
0.4352494363
 41
2.793514875785279
 42
2.817972049299304
  0
ELLIPSE
  5
CC
330
1F
100
AcDbEntity
  8
0
  6
Continuous
 62
     7
370
    25
100
AcDbEllipse
 10
271.0682922173
 20
419.178496203
 30
0.0
 11
4.740451389407781
 21
-3.653092578875772
 31
0.0
210
0.0
220
0.0
230
1.0
 40
0.4352494363
 41
0.3236206042905161
 42
0.3480777778045239
  0
ELLIPSE
  5
CD
330
1F
100
AcDbEntity
  8
0
  6
Continuous
 62
     7
370
    25
100
AcDbEllipse
 10
271.0682922173
 20
412.5705355841
 30
0.0
 11
4.353586204954411
 21
5.649449973844924
 31
0.0
210
0.0
220
0.0
230
1.0
 40
0.4352494363
 41
5.722692106435254
 42
5.744590696998847
  0
ELLIPSE
  5
CE
330
1F
100
AcDbEntity
  8
0
  6
Continuous
 62
     7
370
    25
100
AcDbEllipse
 10
271.0682922173
 20
412.5705355841
 30
0.0
 11
3.920104353055705
 21
5.539164929585581
 31
0.0
210
0.0
220
0.0
230
1.0
 40
0.5603141192
 41
5.77658990612018
 42
5.798488496683768
  0
ELLIPSE
  5
CF
330
1F
100
AcDbEntity
  8
0
  6
Continuous
 62
     7
370
    25
100
AcDbEllipse
 10
271.0682922173
 20
419.178496203
 30
0.0
 11
4.64791124944543
 21
-3.289358116825555
 31
0.0
210
0.0
220
0.0
230
1.0
 40
0.5603141192
 41
0.1607051073332032
 42
0.1925360672501256
  0
ELLIPSE
  5
D0
330
1F
100
AcDbEntity
  8
0
  6
Continuous
 62
     7
370
    25
100
AcDbEllipse
 10
271.0682922173
 20
419.178496203
 30
0.0
 11
4.927194799211065
 21
-4.067118195369346
 31
0.0
210
0.0
220
0.0
230
1.0
 40
0.2090295474
 41
0.5823649152836451
 42
0.6141958752005829
  0
ELLIPSE
  5
D1
330
1F
100
AcDbEntity
  8
0
  6
Continuous
 62
     7
370
    25
100
AcDbEllipse
 10
271.0682922173
 20
412.5705355841
 30
0.0
 11
4.847002720836657
 21
5.872002103371131
 31
0.0
210
0.0
220
0.0
230
1.0
 40
0.2090295474
 41
5.570293573873936
 42
5.591829773916307
  0
ELLIPSE
  5
D2
330
1F
100
AcDbEntity
  8
0
  6
Continuous
 62
     7
370
    25
100
AcDbEllipse
 10
271.0682922173
 20
412.5705355841
 30
0.0
 11
1.594189062466341
 21
5.815428117135468
 31
0.0
210
0.0
220
0.0
230
1.0
 40
0.8149092985
 41
5.618854798157695
 42
5.640753388721284
  0
ELLIPSE
  5
D3
330
1F
100
AcDbEntity
  8
0
  6
Continuous
 62
     7
370
    25
100
AcDbEllipse
 10
271.0682922173
 20
419.178496203
 30
0.0
 11
4.879723588226341
 21
-1.337683454342425
 31
0.0
210
0.0
220
0.0
230
1.0
 40
0.8149092985
 41
5.867276286071704
 42
5.899107245988623
  0
LWPOLYLINE
  5
D4
330
1F
100
AcDbEntity
  8
0
  6
Continuous
 62
     7
370
    25
100
AcDbPolyline
 90
        3
 70
   128
 43
0.0
 10
274.441252141
 20
416.3482463126
 10
274.4268650699
 20
416.3603181158
 10
274.3220782417
 20
416.4482461428
  0
LINE
  5
D5
330
1F
100
AcDbEntity
  8
0
  6
Continuous
 62
     7
370
    25
100
AcDbLine
 10
274.3220782417
 20
416.4482461428
 30
0.0
 11
274.2381679404
 21
416.3482463126
 31
0.0
  0
ELLIPSE
  5
D6
330
1F
100
AcDbEntity
  8
0
  6
Continuous
 62
     7
370
    25
100
AcDbEllipse
 10
271.0682922173
 20
412.5705355841
 30
0.0
 11
-3.20987281236438
 21
5.527238441459644
 31
0.0
210
0.0
220
0.0
230
1.0
 40
0.6935886196
 41
5.016159952469974
 42
5.038058543033557
  0
ELLIPSE
  5
D7
330
1F
100
AcDbEntity
  8
0
  6
Continuous
 62
     7
370
    25
100
AcDbEllipse
 10
271.0682922173
 20
453.3259565226
 30
0.0
 11
4.653122612003188
 21
5.63712201923636
 31
0.0
210
0.0
220
0.0
230
1.0
 40
0.2090295474
 41
4.138384483106298
 42
4.161909697941184
  0
ELLIPSE
  5
D8
330
1F
100
AcDbEntity
  8
0
  6
Continuous
 62
     7
370
    25
100
AcDbEllipse
 10
271.0682922173
 20
453.3259565226
 30
0.0
 11
-4.653122612003188
 21
5.63712201923636
 31
0.0
210
0.0
220
0.0
230
1.0
 40
0.2090295474
 41
2.121275609238412
 42
2.144800824073291
  0
ELLIPSE
  5
D9
330
1F
100
AcDbEntity
  8
0
  6
Continuous
 62
     7
370
    25
100
AcDbEllipse
 10
271.0682922173
 20
412.5705355841
 30
0.0
 11
-4.653122612003131
 21
5.637122019236302
 31
0.0
210
0.0
220
0.0
230
1.0
 40
0.2090295474
 41
5.262868262828242
 42
5.28639347766313
  0
ELLIPSE
  5
DA
330
1F
100
AcDbEntity
  8
0
  6
Continuous
 62
     7
370
    25
100
AcDbEllipse
 10
271.0682922173
 20
412.5705355841
 30
0.0
 11
4.653122612003188
 21
5.63712201923636
 31
0.0
210
0.0
220
0.0
230
1.0
 40
0.2090295474
 41
0.996791829516495
 42
1.020317044351382
  0
LINE
  5
DB
330
1F
100
AcDbEntity
  8
0
  6
Continuous
 62
     7
370
    25
100
AcDbLine
 10
349.268293618
 20
471.2411383306
 30
0.0
 11
348.0611840773
 21
472.4482478713
 31
0.0
  0
LINE
  5
DC
330
1F
100
AcDbEntity
  8
0
  6
Continuous
 62
     7
370
    25
100
AcDbLine
 10
348.0611840773
 20
472.4482478713
 30
0.0
 11
348.2682915914
 21
472.9482451593
 31
0.0
  0
LINE
  5
DD
330
1F
100
AcDbEntity
  8
0
  6
Continuous
 62
     7
370
    25
100
AcDbLine
 10
348.2682915914
 20
472.9482451593
 30
0.0
 11
349.768290906
 21
471.4482458447
 31
0.0
  0
LINE
  5
DE
330
1F
100
AcDbEntity
  8
0
  6
Continuous
 62
     7
370
    25
100
AcDbLine
 10
349.268293618
 20
471.2411383306
 30
0.0
 11
349.768290906
 21
471.4482458447
 31
0.0
  0
LINE
  5
DF
330
1F
100
AcDbEntity
  8
0
  6
Continuous
 62
     7
370
    25
100
AcDbLine
 10
349.268293618
 20
394.6553537761
 30
0.0
 11
349.268293618
 21
471.2411383306
 31
0.0
  0
LINE
  5
E0
330
1F
100
AcDbEntity
  8
0
  6
Continuous
 62
     7
370
    25
100
AcDbLine
 10
348.0611840773
 20
393.4482442354
 30
0.0
 11
349.268293618
 21
394.6553537761
 31
0.0
  0
LINE
  5
E1
330
1F
100
AcDbEntity
  8
0
  6
Continuous
 62
     7
370
    25
100
AcDbLine
 10
296.1931633458
 20
393.4482442354
 30
0.0
 11
348.0611840773
 21
393.4482442354
 31
0.0
  0
LINE
  5
E2
330
1F
100
AcDbEntity
  8
0
  6
Continuous
 62
     7
370
    25
100
AcDbLine
 10
296.1931633458
 20
416.3482463126
 30
0.0
 11
296.1931633458
 21
393.4482442354
 31
0.0
  0
LINE
  5
E3
330
1F
100
AcDbEntity
  8
0
  6
Continuous
 62
     7
370
    25
100
AcDbLine
 10
296.1931633458
 20
416.3482463126
 30
0.0
 11
323.9682918924
 21
416.3482463126
 31
0.0
  0
ARC
  5
E4
330
1F
100
AcDbEntity
  8
0
  6
Continuous
 62
     7
370
    25
100
AcDbCircle
 10
323.9682922173
 20
417.8482460533
 30
0.0
 40
1.5
100
AcDbArc
 50
270.0
 51
0.0
  0
LINE
  5
E5
330
1F
100
AcDbEntity
  8
0
  6
Continuous
 62
     7
370
    25
100
AcDbLine
 10
325.4682930696
 20
417.8482456272
 30
0.0
 11
325.4682930696
 21
448.0482464795
 31
0.0
  0
ARC
  5
E6
330
1F
100
AcDbEntity
  8
0
  6
Continuous
 62
     7
370
    25
100
AcDbCircle
 10
323.9682922173
 20
448.0482460533
 30
0.0
 40
1.5
100
AcDbArc
 50
0.0
 51
90.0
  0
LINE
  5
E7
330
1F
100
AcDbEntity
  8
0
  6
Continuous
 62
     7
370
    25
100
AcDbLine
 10
323.9682918924
 20
449.5482457941
 30
0.0
 11
296.1931633458
 21
449.5482457941
 31
0.0
  0
LINE
  5
E8
330
1F
100
AcDbEntity
  8
0
  6
Continuous
 62
     7
370
    25
100
AcDbLine
 10
296.1931633458
 20
472.4482478713
 30
0.0
 11
296.1931633458
 21
449.5482457941
 31
0.0
  0
LINE
  5
E9
330
1F
100
AcDbEntity
  8
0
  6
Continuous
 62
     7
370
    25
100
AcDbLine
 10
348.0611840773
 20
472.4482478713
 30
0.0
 11
296.1931633458
 21
472.4482478713
 31
0.0
  0
LINE
  5
EA
330
1F
100
AcDbEntity
  8
0
  6
Continuous
 62
     7
370
    25
100
AcDbLine
 10
349.768290906
 20
471.4482458447
 30
0.0
 11
349.768290906
 21
394.448246262
 31
0.0
  0
LINE
  5
EB
330
1F
100
AcDbEntity
  8
0
  6
Continuous
 62
     7
370
    25
100
AcDbLine
 10
349.268293618
 20
394.6553537761
 30
0.0
 11
349.768290906
 21
394.448246262
 31
0.0
  0
LINE
  5
EC
330
1F
100
AcDbEntity
  8
0
  6
Continuous
 62
     7
370
    25
100
AcDbLine
 10
295.9044882141
 20
472.9482451593
 30
0.0
 11
348.2682915914
 21
472.9482451593
 31
0.0
  0
LINE
  5
ED
330
1F
100
AcDbEntity
  8
0
  6
Continuous
 62
     7
370
    25
100
AcDbLine
 10
296.1931633458
 20
472.4482478713
 30
0.0
 11
295.9044882141
 21
472.9482451593
 31
0.0
  0
LINE
  5
EE
330
1F
100
AcDbEntity
  8
0
  6
Continuous
 62
     7
370
    25
100
AcDbLine
 10
293.7682922042
 20
449.5482457941
 30
0.0
 11
293.7682922042
 21
464.4126290594
 31
0.0
  0
ELLIPSE
  5
EF
330
1F
100
AcDbEntity
  8
0
  6
Continuous
 62
     7
370
    25
100
AcDbEllipse
 10
294.1724374057
 20
465.4482460533
 30
0.0
 11
0.0
 21
1.25
 31
0.0
210
0.0
220
0.0
230
1.0
 40
0.5773502692
 41
2.547206853588747
 42
6.877571107180607
  0
LINE
  5
F0
330
1F
100
AcDbEntity
  8
0
  6
Continuous
 62
     7
370
    25
100
AcDbLine
 10
293.7682922042
 20
466.4838606631
 30
0.0
 11
293.7682922042
 21
472.9482451593
 31
0.0
  0
LINE
  5
F1
330
1F
100
AcDbEntity
  8
0
  6
Continuous
 62
     7
370
    25
100
AcDbLine
 10
293.7682922042
 20
472.9482451593
 30
0.0
 11
295.9044882141
 21
472.9482451593
 31
0.0
  0
LINE
  5
F2
330
1F
100
AcDbEntity
  8
0
  6
Continuous
 62
     7
370
    25
100
AcDbLine
 10
296.1931633458
 20
449.5482457941
 30
0.0
 11
293.7682922042
 21
449.5482457941
 31
0.0
  0
LINE
  5
F3
330
1F
100
AcDbEntity
  8
0
  6
Continuous
 62
     7
370
    25
100
AcDbLine
 10
349.768290906
 20
394.448246262
 30
0.0
 11
348.2682915914
 21
392.9482469474
 31
0.0
  0
LINE
  5
F4
330
1F
100
AcDbEntity
  8
0
  6
Continuous
 62
     7
370
    25
100
AcDbLine
 10
348.0611840773
 20
393.4482442354
 30
0.0
 11
348.2682915914
 21
392.9482469474
 31
0.0
  0
LINE
  5
F5
330
1F
100
AcDbEntity
  8
0
  6
Continuous
 62
     7
370
    25
100
AcDbLine
 10
348.2682915914
 20
392.9482469474
 30
0.0
 11
295.9044882141
 21
392.9482469474
 31
0.0
  0
LINE
  5
F6
330
1F
100
AcDbEntity
  8
0
  6
Continuous
 62
     7
370
    25
100
AcDbLine
 10
295.9044882141
 20
392.9482469474
 30
0.0
 11
296.1931633458
 21
393.4482442354
 31
0.0
  0
LINE
  5
F7
330
1F
100
AcDbEntity
  8
0
  6
Continuous
 62
     7
370
    25
100
AcDbLine
 10
293.7682922042
 20
392.9482469474
 30
0.0
 11
293.7682922042
 21
399.4126314436
 31
0.0
  0
ELLIPSE
  5
F8
330
1F
100
AcDbEntity
  8
0
  6
Continuous
 62
     7
370
    25
100
AcDbEllipse
 10
294.1724374057
 20
400.4482460533
 30
0.0
 11
0.0
 21
1.25
 31
0.0
210
0.0
220
0.0
230
1.0
 40
0.5773502692
 41
2.547206853588747
 42
6.877571107180607
  0
LINE
  5
F9
330
1F
100
AcDbEntity
  8
0
  6
Continuous
 62
     7
370
    25
100
AcDbLine
 10
293.7682922042
 20
401.4838630472
 30
0.0
 11
293.7682922042
 21
416.3482463126
 31
0.0
  0
LINE
  5
FA
330
1F
100
AcDbEntity
  8
0
  6
Continuous
 62
     7
370
    25
100
AcDbLine
 10
295.9044882141
 20
392.9482469474
 30
0.0
 11
293.7682922042
 21
392.9482469474
 31
0.0
  0
LINE
  5
FB
330
1F
100
AcDbEntity
  8
0
  6
Continuous
 62
     7
370
    25
100
AcDbLine
 10
293.7682922042
 20
416.3482463126
 30
0.0
 11
296.1931633458
 21
416.3482463126
 31
0.0
  0
LINE
  5
FC
330
1F
100
AcDbEntity
  8
0
  6
Continuous
 62
     7
370
    25
100
AcDbLine
 10
293.7682922042
 20
466.4838606631
 30
0.0
 11
293.7682922042
 21
464.4126290594
 31
0.0
  0
LINE
  5
FD
330
1F
100
AcDbEntity
  8
0
  6
Continuous
 62
     7
370
    25
100
AcDbLine
 10
293.7682922042
 20
401.4838630472
 30
0.0
 11
293.7682922042
 21
399.4126314436
 31
0.0
  0
LINE
  5
FE
330
1F
100
AcDbEntity
  8
0
  6
Continuous
 62
     7
370
    25
100
AcDbLine
 10
235.2588909257
 20
471.2411383306
 30
0.0
 11
235.2588909257
 21
394.6553537761
 31
0.0
  0
LINE
  5
FF
330
1F
100
AcDbEntity
  8
0
  6
Continuous
 62
     7
370
    25
100
AcDbLine
 10
236.4659967411
 20
472.4482478713
 30
0.0
 11
235.2588909257
 21
471.2411383306
 31
0.0
  0
LINE
  5
100
330
1F
100
AcDbEntity
  8
0
  6
Continuous
 62
     7
370
    25
100
AcDbLine
 10
288.3340200919
 20
472.4482478713
 30
0.0
 11
236.4659967411
 21
472.4482478713
 31
0.0
  0
LINE
  5
101
330
1F
100
AcDbEntity
  8
0
  6
Continuous
 62
     7
370
    25
100
AcDbLine
 10
288.3340200919
 20
449.5482457941
 30
0.0
 11
288.3340200919
 21
472.4482478713
 31
0.0
  0
LINE
  5
102
330
1F
100
AcDbEntity
  8
0
  6
Continuous
 62
     7
370
    25
100
AcDbLine
 10
288.3340200919
 20
449.5482457941
 30
0.0
 11
260.5588907886
 21
449.5482457941
 31
0.0
  0
ARC
  5
103
330
1F
100
AcDbEntity
  8
0
  6
Continuous
 62
     7
370
    25
100
AcDbCircle
 10
260.5588911405
 20
448.0482460533
 30
0.0
 40
1.5
100
AcDbArc
 50
90.0
 51
180.0
  0
LINE
  5
104
330
1F
100
AcDbEntity
  8
0
  6
Continuous
 62
     7
370
    25
100
AcDbLine
 10
259.058891474
 20
448.0482464795
 30
0.0
 11
259.058891474
 21
417.8482456272
 31
0.0
  0
ARC
  5
105
330
1F
100
AcDbEntity
  8
0
  6
Continuous
 62
     7
370
    25
100
AcDbCircle
 10
260.5588911405
 20
417.8482460533
 30
0.0
 40
1.500000000000057
100
AcDbArc
 50
180.0
 51
270.0
  0
LINE
  5
106
330
1F
100
AcDbEntity
  8
0
  6
Continuous
 62
     7
370
    25
100
AcDbLine
 10
260.5588907886
 20
416.3482463126
 30
0.0
 11
288.3340200919
 21
416.3482463126
 31
0.0
  0
LINE
  5
107
330
1F
100
AcDbEntity
  8
0
  6
Continuous
 62
     7
370
    25
100
AcDbLine
 10
288.3340200919
 20
393.4482442354
 30
0.0
 11
288.3340200919
 21
416.3482463126
 31
0.0
  0
LINE
  5
108
330
1F
100
AcDbEntity
  8
0
  6
Continuous
 62
     7
370
    25
100
AcDbLine
 10
236.4659967411
 20
393.4482442354
 30
0.0
 11
288.3340200919
 21
393.4482442354
 31
0.0
  0
LINE
  5
109
330
1F
100
AcDbEntity
  8
0
  6
Continuous
 62
     7
370
    25
100
AcDbLine
 10
235.2588909257
 20
394.6553537761
 30
0.0
 11
236.4659967411
 21
393.4482442354
 31
0.0
  0
LINE
  5
10A
330
1F
100
AcDbEntity
  8
0
  6
Continuous
 62
     7
370
    25
100
AcDbLine
 10
290.7588911753
 20
472.9482451593
 30
0.0
 11
290.7588911753
 21
466.4838606631
 31
0.0
  0
ELLIPSE
  5
10B
330
1F
100
AcDbEntity
  8
0
  6
Continuous
 62
     7
370
    25
100
AcDbEllipse
 10
290.3547459521
 20
465.4482460533
 30
0.0
 11
0.0
 21
1.250000000000057
 31
0.0
210
0.0
220
0.0
230
1.0
 40
0.5773502692
 41
5.688799507178564
 42
10.01916376077049
  0
LINE
  5
10C
330
1F
100
AcDbEntity
  8
0
  6
Continuous
 62
     7
370
    25
100
AcDbLine
 10
290.7588911753
 20
464.4126290594
 30
0.0
 11
290.7588911753
 21
449.5482457941
 31
0.0
  0
LINE
  5
10D
330
1F
100
AcDbEntity
  8
0
  6
Continuous
 62
     7
370
    25
100
AcDbLine
 10
290.7588911753
 20
449.5482457941
 30
0.0
 11
288.3340200919
 21
449.5482457941
 31
0.0
  0
LINE
  5
10E
330
1F
100
AcDbEntity
  8
0
  6
Continuous
 62
     7
370
    25
100
AcDbLine
 10
288.6226951655
 20
472.9482451593
 30
0.0
 11
288.3340200919
 21
472.4482478713
 31
0.0
  0
LINE
  5
10F
330
1F
100
AcDbEntity
  8
0
  6
Continuous
 62
     7
370
    25
100
AcDbLine
 10
288.6226951655
 20
472.9482451593
 30
0.0
 11
290.7588911753
 21
472.9482451593
 31
0.0
  0
LINE
  5
110
330
1F
100
AcDbEntity
  8
0
  6
Continuous
 62
     7
370
    25
100
AcDbLine
 10
236.4659967411
 20
472.4482478713
 30
0.0
 11
236.2588929522
 21
472.9482451593
 31
0.0
  0
LINE
  5
111
330
1F
100
AcDbEntity
  8
0
  6
Continuous
 62
     7
370
    25
100
AcDbLine
 10
236.2588929522
 20
472.9482451593
 30
0.0
 11
288.6226951655
 21
472.9482451593
 31
0.0
  0
LINE
  5
112
330
1F
100
AcDbEntity
  8
0
  6
Continuous
 62
     7
370
    25
100
AcDbLine
 10
288.3340200919
 20
416.3482463126
 30
0.0
 11
290.7588911753
 21
416.3482463126
 31
0.0
  0
LINE
  5
113
330
1F
100
AcDbEntity
  8
0
  6
Continuous
 62
     7
370
    25
100
AcDbLine
 10
290.7588911753
 20
416.3482463126
 30
0.0
 11
290.7588911753
 21
401.4838630472
 31
0.0
  0
ELLIPSE
  5
114
330
1F
100
AcDbEntity
  8
0
  6
Continuous
 62
     7
370
    25
100
AcDbEllipse
 10
290.3547459521
 20
400.4482460533
 30
0.0
 11
0.0
 21
1.25
 31
0.0
210
0.0
220
0.0
230
1.0
 40
0.5773502692
 41
5.688799507178596
 42
10.01916376077041
  0
LINE
  5
115
330
1F
100
AcDbEntity
  8
0
  6
Continuous
 62
     7
370
    25
100
AcDbLine
 10
290.7588911753
 20
399.4126314436
 30
0.0
 11
290.7588911753
 21
392.9482469474
 31
0.0
  0
LINE
  5
116
330
1F
100
AcDbEntity
  8
0
  6
Continuous
 62
     7
370
    25
100
AcDbLine
 10
290.7588911753
 20
392.9482469474
 30
0.0
 11
288.6226951655
 21
392.9482469474
 31
0.0
  0
LINE
  5
117
330
1F
100
AcDbEntity
  8
0
  6
Continuous
 62
     7
370
    25
100
AcDbLine
 10
288.3340200919
 20
393.4482442354
 30
0.0
 11
288.6226951655
 21
392.9482469474
 31
0.0
  0
LINE
  5
118
330
1F
100
AcDbEntity
  8
0
  6
Continuous
 62
     7
370
    25
100
AcDbLine
 10
235.2588909257
 20
394.6553537761
 30
0.0
 11
234.7588899124
 21
394.448246262
 31
0.0
  0
LINE
  5
119
330
1F
100
AcDbEntity
  8
0
  6
Continuous
 62
     7
370
    25
100
AcDbLine
 10
234.7588899124
 20
394.448246262
 30
0.0
 11
234.7588899124
 21
471.4482458447
 31
0.0
  0
LINE
  5
11A
330
1F
100
AcDbEntity
  8
0
  6
Continuous
 62
     7
370
    25
100
AcDbLine
 10
235.2588909257
 20
471.2411383306
 30
0.0
 11
234.7588899124
 21
471.4482458447
 31
0.0
  0
LINE
  5
11B
330
1F
100
AcDbEntity
  8
0
  6
Continuous
 62
     7
370
    25
100
AcDbLine
 10
234.7588899124
 20
471.4482458447
 30
0.0
 11
236.2588929522
 21
472.9482451593
 31
0.0
  0
LINE
  5
11C
330
1F
100
AcDbEntity
  8
0
  6
Continuous
 62
     7
370
    25
100
AcDbLine
 10
288.6226951655
 20
392.9482469474
 30
0.0
 11
236.2588929522
 21
392.9482469474
 31
0.0
  0
LINE
  5
11D
330
1F
100
AcDbEntity
  8
0
  6
Continuous
 62
     7
370
    25
100
AcDbLine
 10
236.4659967411
 20
393.4482442354
 30
0.0
 11
236.2588929522
 21
392.9482469474
 31
0.0
  0
LINE
  5
11E
330
1F
100
AcDbEntity
  8
0
  6
Continuous
 62
     7
370
    25
100
AcDbLine
 10
236.2588929522
 20
392.9482469474
 30
0.0
 11
234.7588899124
 21
394.448246262
 31
0.0
  0
LINE
  5
11F
330
1F
100
AcDbEntity
  8
0
  6
Continuous
 62
     7
370
    25
100
AcDbLine
 10
290.7588911753
 20
464.4126290594
 30
0.0
 11
290.7588911753
 21
466.4838606631
 31
0.0
  0
LINE
  5
120
330
1F
100
AcDbEntity
  8
0
  6
Continuous
 62
     7
370
    25
100
AcDbLine
 10
290.7588911753
 20
399.4126314436
 30
0.0
 11
290.7588911753
 21
401.4838630472
 31
0.0
  0
LINE
  5
121
330
1F
100
AcDbEntity
  8
0
  6
Continuous
 62
     7
370
    25
100
AcDbLine
 10
263.9745573092
 20
417.9482463886
 30
0.0
 11
291.7682921092
 21
417.9482463886
 31
0.0
  0
LINE
  5
122
330
1F
100
AcDbEntity
  8
0
  6
Continuous
 62
     7
370
    25
100
AcDbLine
 10
263.9745573092
 20
447.9482457181
 30
0.0
 11
263.9745573092
 21
417.9482463886
 31
0.0
  0
LINE
  5
123
330
1F
100
AcDbEntity
  8
0
  6
Continuous
 62
     7
370
    25
100
AcDbLine
 10
291.7682921092
 20
417.9482463886
 30
0.0
 11
291.7682921092
 21
447.9482457181
 31
0.0
  0
LINE
  5
124
330
1F
100
AcDbEntity
  8
0
  6
Continuous
 62
     7
370
    25
100
AcDbLine
 10
263.9745573092
 20
447.9482457181
 30
0.0
 11
291.7682921092
 21
447.9482457181
 31
0.0
  0
LINE
  5
125
330
1F
100
AcDbEntity
  8
0
  6
Continuous
 62
     7
370
    25
100
AcDbLine
 10
262.6294965434
 20
417.9482463886
 30
0.0
 11
262.6294965434
 21
447.9482457181
 31
0.0
  0
LINE
  5
126
330
1F
100
AcDbEntity
  8
0
  6
Continuous
 62
     7
370
    25
100
AcDbLine
 10
263.9745573092
 20
417.9482463886
 30
0.0
 11
262.6294965434
 21
417.9482463886
 31
0.0
  0
LINE
  5
127
330
1F
100
AcDbEntity
  8
0
  6
Continuous
 62
     7
370
    25
100
AcDbLine
 10
262.6294965434
 20
447.9482457181
 30
0.0
 11
263.9745573092
 21
447.9482457181
 31
0.0
  0
LINE
  5
128
330
1F
100
AcDbEntity
  8
0
  6
Continuous
 62
     7
370
    25
100
AcDbLine
 10
260.7682930815
 20
417.9482463886
 30
0.0
 11
262.6294965434
 21
417.9482463886
 31
0.0
  0
LINE
  5
129
330
1F
100
AcDbEntity
  8
0
  6
Continuous
 62
     7
370
    25
100
AcDbLine
 10
260.7682930815
 20
447.9482457181
 30
0.0
 11
262.6294965434
 21
447.9482457181
 31
0.0
  0
LINE
  5
12A
330
1F
100
AcDbEntity
  8
0
  6
Continuous
 62
     7
370
    25
100
AcDbLine
 10
290.768292411
 20
449.5482457941
 30
0.0
 11
290.768292411
 21
456.948246262
 31
0.0
  0
LINE
  5
12B
330
1F
100
AcDbEntity
  8
0
  6
Continuous
 62
     7
370
    25
100
AcDbLine
 10
290.768292411
 20
449.5482457941
 30
0.0
 11
290.7588911753
 21
449.5482457941
 31
0.0
  0
LINE
  5
12C
330
1F
100
AcDbEntity
  8
0
  6
Continuous
 62
     7
370
    25
100
AcDbLine
 10
290.7588911753
 20
456.948246262
 30
0.0
 11
290.768292411
 21
456.948246262
 31
0.0
  0
LINE
  5
12D
330
1F
100
AcDbEntity
  8
0
  6
Continuous
 62
     7
370
    25
100
AcDbLine
 10
290.768292411
 20
408.9482458447
 30
0.0
 11
290.768292411
 21
416.3482463126
 31
0.0
  0
LINE
  5
12E
330
1F
100
AcDbEntity
  8
0
  6
Continuous
 62
     7
370
    25
100
AcDbLine
 10
290.768292411
 20
408.9482458447
 30
0.0
 11
290.7588911753
 21
408.9482458447
 31
0.0
  0
LINE
  5
12F
330
1F
100
AcDbEntity
  8
0
  6
Continuous
 62
     7
370
    25
100
AcDbLine
 10
290.7588911753
 20
416.3482463126
 30
0.0
 11
290.768292411
 21
416.3482463126
 31
0.0
  0
LINE
  5
130
330
1F
100
AcDbEntity
  8
0
  6
Continuous
 62
     7
370
    25
100
AcDbLine
 10
290.768292411
 20
407.9482456808
 30
0.0
 11
290.768292411
 21
408.9482458447
 31
0.0
  0
LINE
  5
131
330
1F
100
AcDbEntity
  8
0
  6
Continuous
 62
     7
370
    25
100
AcDbLine
 10
290.768292411
 20
456.948246262
 30
0.0
 11
290.768292411
 21
457.9482464259
 31
0.0
  0
ARC
  5
132
330
1F
100
AcDbEntity
  8
0
  6
Continuous
 62
     7
370
    25
100
AcDbCircle
 10
260.5682922173
 20
448.0482460533
 30
0.0
 40
1.5
100
AcDbArc
 50
90.0
 51
180.0
  0
ARC
  5
133
330
1F
100
AcDbEntity
  8
0
  6
Continuous
 62
     7
370
    25
100
AcDbCircle
 10
260.5682922173
 20
417.8482460533
 30
0.0
 40
1.5
100
AcDbArc
 50
180.0
 51
270.0
  0
LINE
  5
134
330
1F
100
AcDbEntity
  8
0
  6
Continuous
 62
     7
370
    25
100
AcDbLine
 10
259.0682903815
 20
448.0482464795
 30
0.0
 11
259.0682903815
 21
447.9482457181
 31
0.0
  0
LINE
  5
135
330
1F
100
AcDbEntity
  8
0
  6
Continuous
 62
     7
370
    25
100
AcDbLine
 10
259.0682903815
 20
417.9482463886
 30
0.0
 11
259.0682903815
 21
417.8482456272
 31
0.0
  0
LINE
  5
136
330
1F
100
AcDbEntity
  8
0
  6
Continuous
 62
     7
370
    25
100
AcDbLine
 10
321.5620281685
 20
417.9482463886
 30
0.0
 11
321.5620281685
 21
447.9482457181
 31
0.0
  0
LINE
  5
137
330
1F
100
AcDbEntity
  8
0
  6
Continuous
 62
     7
370
    25
100
AcDbLine
 10
322.9070889342
 20
447.9482457181
 30
0.0
 11
322.9070889342
 21
417.9482463886
 31
0.0
  0
LINE
  5
138
330
1F
100
AcDbEntity
  8
0
  6
Continuous
 62
     7
370
    25
100
AcDbLine
 10
322.9070889342
 20
417.9482463886
 30
0.0
 11
321.5620281685
 21
417.9482463886
 31
0.0
  0
LINE
  5
139
330
1F
100
AcDbEntity
  8
0
  6
Continuous
 62
     7
370
    25
100
AcDbLine
 10
321.5620281685
 20
447.9482457181
 30
0.0
 11
322.9070889342
 21
447.9482457181
 31
0.0
  0
LINE
  5
13A
330
1F
100
AcDbEntity
  8
0
  6
Continuous
 62
     7
370
    25
100
AcDbLine
 10
321.5620281685
 20
417.9482463886
 30
0.0
 11
291.7682921092
 21
417.9482463886
 31
0.0
  0
LINE
  5
13B
330
1F
100
AcDbEntity
  8
0
  6
Continuous
 62
     7
370
    25
100
AcDbLine
 10
321.5620281685
 20
447.9482457181
 30
0.0
 11
291.7682921092
 21
447.9482457181
 31
0.0
  0
LINE
  5
13C
330
1F
100
AcDbEntity
  8
0
  6
Continuous
 62
     7
370
    25
100
AcDbLine
 10
322.9070889342
 20
417.9482463886
 30
0.0
 11
325.4682930696
 21
417.9482463886
 31
0.0
  0
LINE
  5
13D
330
1F
100
AcDbEntity
  8
0
  6
Continuous
 62
     7
370
    25
100
AcDbLine
 10
322.9070889342
 20
447.9482457181
 30
0.0
 11
325.4682930696
 21
447.9482457181
 31
0.0
  0
LINE
  5
13E
330
1F
100
AcDbEntity
  8
0
  6
Continuous
 62
     7
370
    25
100
AcDbLine
 10
293.7682922042
 20
449.5482457941
 30
0.0
 11
293.7682922042
 21
447.9482457181
 31
0.0
  0
LINE
  5
13F
330
1F
100
AcDbEntity
  8
0
  6
Continuous
 62
     7
370
    25
100
AcDbLine
 10
293.7682922042
 20
417.9482463886
 30
0.0
 11
293.7682922042
 21
416.3482463126
 31
0.0
  0
LINE
  5
140
330
1F
100
AcDbEntity
  8
0
  6
Continuous
 62
     7
370
    25
100
AcDbLine
 10
291.7682921092
 20
472.4482478713
 30
0.0
 11
291.7682921092
 21
449.4482459639
 31
0.0
  0
LINE
  5
141
330
1F
100
AcDbEntity
  8
0
  6
Continuous
 62
     7
370
    25
100
AcDbLine
 10
291.9682922352
 20
472.9482451593
 30
0.0
 11
291.7682921092
 21
472.4482478713
 31
0.0
  0
LINE
  5
142
330
1F
100
AcDbEntity
  8
0
  6
Continuous
 62
     7
370
    25
100
AcDbLine
 10
291.9682922352
 20
472.9482451593
 30
0.0
 11
293.7682922042
 21
472.9482451593
 31
0.0
  0
LINE
  5
143
330
1F
100
AcDbEntity
  8
0
  6
Continuous
 62
     7
370
    25
100
AcDbLine
 10
292.1682921282
 20
449.4482459639
 30
0.0
 11
292.1682921282
 21
447.9482457181
 31
0.0
  0
LINE
  5
144
330
1F
100
AcDbEntity
  8
0
  6
Continuous
 62
     7
370
    25
100
AcDbLine
 10
292.1682921282
 20
449.4482459639
 30
0.0
 11
291.7682921092
 21
449.4482459639
 31
0.0
  0
LINE
  5
145
330
1F
100
AcDbEntity
  8
0
  6
Continuous
 62
     7
370
    25
100
AcDbLine
 10
292.1682921282
 20
417.9482463886
 30
0.0
 11
292.1682921282
 21
416.4482461428
 31
0.0
  0
LINE
  5
146
330
1F
100
AcDbEntity
  8
0
  6
Continuous
 62
     7
370
    25
100
AcDbLine
 10
293.7682922042
 20
392.9482469474
 30
0.0
 11
291.9682922352
 21
392.9482469474
 31
0.0
  0
LINE
  5
147
330
1F
100
AcDbEntity
  8
0
  6
Continuous
 62
     7
370
    25
100
AcDbLine
 10
291.7682921092
 20
393.4482442354
 30
0.0
 11
291.9682922352
 21
392.9482469474
 31
0.0
  0
LINE
  5
148
330
1F
100
AcDbEntity
  8
0
  6
Continuous
 62
     7
370
    25
100
AcDbLine
 10
291.7682921092
 20
416.4482461428
 30
0.0
 11
291.7682921092
 21
393.4482442354
 31
0.0
  0
LINE
  5
149
330
1F
100
AcDbEntity
  8
0
  6
Continuous
 62
     7
370
    25
100
AcDbLine
 10
291.7682921092
 20
416.4482461428
 30
0.0
 11
292.1682921282
 21
416.4482461428
 31
0.0
  0
LINE
  5
14A
330
1F
100
AcDbEntity
  8
0
  6
Continuous
 62
     8
370
    25
100
AcDbLine
 10
263.6815669525
 20
417.0482451235
 30
0.0
 11
279.5682928103
 21
417.0482451235
 31
0.0
  0
LINE
  5
14B
330
1F
100
AcDbEntity
  8
0
  6
Continuous
 62
     8
370
    25
100
AcDbLine
 10
262.5682937491
 20
417.0482451235
 30
0.0
 11
263.6815669525
 21
417.0482451235
 31
0.0
  0
LINE
  5
14C
330
1F
100
AcDbEntity
  8
0
  6
Continuous
 62
     8
370
    25
100
AcDbLine
 10
275.4386781293
 20
448.8482469832
 30
0.0
 11
262.5682937491
 21
448.8482469832
 31
0.0
  0
LINE
  5
14D
330
1F
100
AcDbEntity
  8
0
  6
Continuous
 62
     8
370
    25
100
AcDbLine
 10
279.5682928103
 20
448.8482469832
 30
0.0
 11
275.4386781293
 21
448.8482469832
 31
0.0
  0
LINE
  5
14E
330
1F
100
AcDbEntity
  8
0
  6
Continuous
 62
     8
370
    25
100
AcDbLine
 10
259.0682903815
 20
448.0482464795
 30
0.0
 11
259.058891474
 21
448.0482464795
 31
0.0
  0
LINE
  5
14F
330
1F
100
AcDbEntity
  8
0
  6
Continuous
 62
     8
370
    25
100
AcDbLine
 10
259.0682903815
 20
417.8482456272
 30
0.0
 11
259.058891474
 21
417.8482456272
 31
0.0
  0
LINE
  5
150
330
1F
100
AcDbEntity
  8
0
  6
CENTER
 62
     1
100
AcDbLine
 10
336.7682906378
 20
407.9482456808
 30
0.0
 11
336.7682906378
 21
457.9482464259
 31
0.0
1001
PE_URL
1000

  0
ARC
  5
151
330
1F
100
AcDbEntity
  8
0
  6
CENTER
 62
     1
100
AcDbCircle
 10
328.7682922173
 20
457.9482460533
 30
0.0
 40
8.000000000000114
100
AcDbArc
 50
0.0
 51
157.380135052
1001
PE_URL
1000

  0
ARC
  5
152
330
1F
100
AcDbEntity
  8
0
  6
HIDDEN
 62
     7
370
    18
100
AcDbCircle
 10
316.7682922173
 20
462.9482460533
 30
0.0
 40
5.0
100
AcDbArc
 50
270.0
 51
337.380135052
  0
LINE
  5
153
330
1F
100
AcDbEntity
  8
0
  6
CENTER
 62
     1
100
AcDbLine
 10
316.7682929474
 20
457.9482464259
 30
0.0
 11
293.7682922042
 21
457.9482464259
 31
0.0
1001
PE_URL
1000

  0
LINE
  5
154
330
1F
100
AcDbEntity
  8
0
  6
CENTER
 62
     1
100
AcDbLine
 10
293.7682922042
 20
407.9482456808
 30
0.0
 11
316.7682929474
 21
407.9482456808
 31
0.0
1001
PE_URL
1000

  0
ARC
  5
155
330
1F
100
AcDbEntity
  8
0
  6
CENTER
 62
     1
100
AcDbCircle
 10
316.7682922173
 20
402.9482460533
 30
0.0
 40
5.000000000000057
100
AcDbArc
 50
22.619864948
 51
90.0
1001
PE_URL
1000

  0
ARC
  5
156
330
1F
100
AcDbEntity
  8
0
  6
CENTER
 62
     1
100
AcDbCircle
 10
328.7682922173
 20
407.9482460533
 30
0.0
 40
8.000000000000057
100
AcDbArc
 50
202.619864948
 51
0.0
1001
PE_URL
1000

  0
ARC
  5
157
330
1F
100
AcDbEntity
  8
0
  6
CENTER
 62
     1
100
AcDbCircle
 10
316.7682922173
 20
402.9482460533
 30
0.0
 40
5.000000000000057
100
AcDbArc
 50
22.619864948
 51
90.0
1001
PE_URL
1000

  0
ARC
  5
158
330
1F
100
AcDbEntity
  8
0
  6
CENTER
 62
     1
100
AcDbCircle
 10
328.7682922173
 20
407.9482460533
 30
0.0
 40
8.000000000000057
100
AcDbArc
 50
202.619864948
 51
0.0
1001
PE_URL
1000

  0
ARC
  5
159
330
1F
100
AcDbEntity
  8
0
  6
CENTER
 62
     1
100
AcDbCircle
 10
316.7682922173
 20
462.9482460533
 30
0.0
 40
5.0
100
AcDbArc
 50
270.0
 51
337.380135052
1001
PE_URL
1000

  0
ARC
  5
15A
330
1F
100
AcDbEntity
  8
0
  6
CENTER
 62
     1
100
AcDbCircle
 10
328.7682922173
 20
457.9482460533
 30
0.0
 40
8.000000000000114
100
AcDbArc
 50
0.0
 51
157.380135052
1001
PE_URL
1000

  0
ARC
  5
15B
330
1F
100
AcDbEntity
  8
0
  6
CENTER
 62
     1
100
AcDbCircle
 10
267.7682922173
 20
402.9482460533
 30
0.0
 40
5.0
100
AcDbArc
 50
90.0
 51
157.380135052
1001
PE_URL
1000

  0
LINE
  5
15C
330
1F
100
AcDbEntity
  8
0
  6
HIDDEN
 62
     7
370
    18
100
AcDbLine
 10
290.7588911753
 20
407.9482456808
 30
0.0
 11
267.7682923663
 21
407.9482456808
 31
0.0
  0
LINE
  5
15D
330
1F
100
AcDbEntity
  8
0
  6
HIDDEN
 62
     7
370
    18
100
AcDbLine
 10
267.7682923663
 20
457.9482464259
 30
0.0
 11
290.7588911753
 21
457.9482464259
 31
0.0
  0
ARC
  5
15E
330
1F
100
AcDbEntity
  8
0
  6
CENTER
 62
     1
100
AcDbCircle
 10
267.7682922173
 20
462.9482460533
 30
0.0
 40
4.999999999999943
100
AcDbArc
 50
202.619864948
 51
270.0
1001
PE_URL
1000

  0
ARC
  5
15F
330
1F
100
AcDbEntity
  8
0
  6
CENTER
 62
     1
100
AcDbCircle
 10
255.7682922173
 20
457.9482460533
 30
0.0
 40
8.000000000000028
100
AcDbArc
 50
22.619864948
 51
180.0
1001
PE_URL
1000

  0
LINE
  5
160
330
1F
100
AcDbEntity
  8
0
  6
CENTER
 62
     1
100
AcDbLine
 10
247.7682928133
 20
407.9482456808
 30
0.0
 11
247.7682928133
 21
457.9482464259
 31
0.0
1001
PE_URL
1000

  0
ARC
  5
161
330
1F
100
AcDbEntity
  8
0
  6
CENTER
 62
     1
100
AcDbCircle
 10
255.7682922173
 20
407.9482460533
 30
0.0
 40
8.000000000000028
100
AcDbArc
 50
180.0
 51
337.380135052
1001
PE_URL
1000

  0
ARC
  5
162
330
1F
100
AcDbEntity
  8
0
  6
CENTER
 62
     1
100
AcDbCircle
 10
255.7682922173
 20
407.9482460533
 30
0.0
 40
8.000000000000028
100
AcDbArc
 50
180.0
 51
337.380135052
1001
PE_URL
1000

  0
ARC
  5
163
330
1F
100
AcDbEntity
  8
0
  6
CENTER
 62
     1
100
AcDbCircle
 10
267.7682922173
 20
402.9482460533
 30
0.0
 40
5.0
100
AcDbArc
 50
90.0
 51
157.380135052
1001
PE_URL
1000

  0
LINE
  5
164
330
1F
100
AcDbEntity
  8
0
  6
CENTER
 62
     1
100
AcDbLine
 10
290.768292411
 20
407.9482456808
 30
0.0
 11
267.7682923663
 21
407.9482456808
 31
0.0
1001
PE_URL
1000

  0
ARC
  5
165
330
1F
100
AcDbEntity
  8
0
  6
CENTER
 62
     1
100
AcDbCircle
 10
267.7682922173
 20
462.9482460533
 30
0.0
 40
5.0
100
AcDbArc
 50
202.619864948
 51
270.0
1001
PE_URL
1000

  0
ARC
  5
166
330
1F
100
AcDbEntity
  8
0
  6
CENTER
 62
     1
100
AcDbCircle
 10
255.7682922173
 20
457.9482460533
 30
0.0
 40
8.000000000000028
100
AcDbArc
 50
22.619864948
 51
180.0
1001
PE_URL
1000

  0
LINE
  5
167
330
1F
100
AcDbEntity
  8
0
  6
CENTER
 62
     1
100
AcDbLine
 10
267.7682923663
 20
457.9482464259
 30
0.0
 11
290.768292411
 21
457.9482464259
 31
0.0
1001
PE_URL
1000

  0
LINE
  5
198
330
1F
100
AcDbEntity
  8
0
  6
Continuous
 62
     7
370
    25
100
AcDbLine
 10
283.5682925347
 20
300.6359459216
 30
0.0
 11
283.5682925347
 21
301.0359457078
 31
0.0
  0
LINE
  5
199
330
1F
100
AcDbEntity
  8
0
  6
Continuous
 62
     7
370
    25
100
AcDbLine
 10
373.7682948399
 20
301.3359458967
 30
0.0
 11
373.7682948399
 21
309.3359460438
 31
0.0
  0
LINE
  5
19A
330
1F
100
AcDbEntity
  8
0
  6
Continuous
 62
     7
370
    25
100
AcDbLine
 10
293.7682922042
 20
301.3359458967
 30
0.0
 11
373.7682948399
 21
301.3359458967
 31
0.0
  0
LINE
  5
19B
330
1F
100
AcDbEntity
  8
0
  6
Continuous
 62
     7
370
    25
100
AcDbLine
 10
293.7682922042
 20
301.3359458967
 30
0.0
 11
293.7682922042
 21
309.3359460438
 31
0.0
  0
LINE
  5
19C
330
1F
100
AcDbEntity
  8
0
  6
Continuous
 62
     7
370
    25
100
AcDbLine
 10
293.7682922042
 20
309.3359460438
 30
0.0
 11
373.7682948399
 21
309.3359460438
 31
0.0
  0
LINE
  5
19D
330
1F
100
AcDbEntity
  8
0
  6
Continuous
 62
     7
370
    25
100
AcDbLine
 10
290.768292411
 20
309.3359460438
 30
0.0
 11
210.7682923365
 21
309.3359460438
 31
0.0
  0
LINE
  5
19E
330
1F
100
AcDbEntity
  8
0
  6
Continuous
 62
     7
370
    25
100
AcDbLine
 10
290.768292411
 20
309.3359460438
 30
0.0
 11
290.768292411
 21
301.3359458967
 31
0.0
  0
LINE
  5
19F
330
1F
100
AcDbEntity
  8
0
  6
Continuous
 62
     7
370
    25
100
AcDbLine
 10
290.768292411
 20
301.3359458967
 30
0.0
 11
210.7682923365
 21
301.3359458967
 31
0.0
  0
LINE
  5
1A0
330
1F
100
AcDbEntity
  8
0
  6
Continuous
 62
     7
370
    25
100
AcDbLine
 10
210.7682923365
 20
309.3359460438
 30
0.0
 11
210.7682923365
 21
301.3359458967
 31
0.0
  0
LINE
  5
1A1
330
1F
100
AcDbEntity
  8
0
  6
Continuous
 62
     7
370
    25
100
AcDbLine
 10
301.8560350451
 20
300.6359459216
 30
0.0
 11
301.8560350451
 21
301.3359458967
 31
0.0
  0
LINE
  5
1A2
330
1F
100
AcDbEntity
  8
0
  6
Continuous
 62
     7
370
    25
100
AcDbLine
 10
343.5560340572
 20
301.3359458967
 30
0.0
 11
343.5560340572
 21
300.6359459216
 31
0.0
  0
LINE
  5
1A3
330
1F
100
AcDbEntity
  8
0
  6
Continuous
 62
     7
370
    25
100
AcDbLine
 10
303.0682920057
 20
309.3359460438
 30
0.0
 11
303.0682920057
 21
310.035945786
 31
0.0
  0
LINE
  5
1A4
330
1F
100
AcDbEntity
  8
0
  6
Continuous
 62
     7
370
    25
100
AcDbLine
 10
344.7682919491
 20
310.035945786
 30
0.0
 11
344.7682919491
 21
309.3359460438
 31
0.0
  0
LINE
  5
1A5
330
1F
100
AcDbEntity
  8
0
  6
Continuous
 62
     7
370
    25
100
AcDbLine
 10
281.4682923767
 20
301.3359458967
 30
0.0
 11
281.4682923767
 21
300.6359459216
 31
0.0
  0
LINE
  5
1A6
330
1F
100
AcDbEntity
  8
0
  6
Continuous
 62
     7
370
    25
100
AcDbLine
 10
239.768291502
 20
300.6359459216
 30
0.0
 11
239.768291502
 21
301.3359458967
 31
0.0
  0
LINE
  5
1A7
330
1F
100
AcDbEntity
  8
0
  6
Continuous
 62
     7
370
    25
100
AcDbLine
 10
281.4682923767
 20
310.035945786
 30
0.0
 11
281.4682923767
 21
309.3359460438
 31
0.0
  0
LINE
  5
1A8
330
1F
100
AcDbEntity
  8
0
  6
Continuous
 62
     7
370
    25
100
AcDbLine
 10
239.768291502
 20
309.3359460438
 30
0.0
 11
239.768291502
 21
310.035945786
 31
0.0
  0
LINE
  5
1A9
330
1F
100
AcDbEntity
  8
0
  6
Continuous
 62
     7
370
    25
100
AcDbLine
 10
281.4682923767
 20
301.0359457078
 30
0.0
 11
282.0278840649
 21
301.0359457078
 31
0.0
  0
LINE
  5
1AA
330
1F
100
AcDbEntity
  8
0
  6
Continuous
 62
     7
370
    25
100
AcDbLine
 10
260.7682930815
 20
315.2359462658
 30
0.0
 11
260.7682930815
 21
315.0359456743
 31
0.0
  0
ARC
  5
1AB
330
1F
100
AcDbEntity
  8
0
  6
Continuous
 62
     7
370
    25
100
AcDbCircle
 10
259.5682922173
 20
314.7359458978
 30
0.0
 40
0.5
100
AcDbArc
 50
90.0
 51
143.1301023542
  0
LINE
  5
1AC
330
1F
100
AcDbEntity
  8
0
  6
Continuous
 62
     7
370
    25
100
AcDbLine
 10
259.5682913947
 20
315.2359462658
 30
0.0
 11
260.7682930815
 21
315.2359462658
 31
0.0
  0
LINE
  5
1AD
330
1F
100
AcDbEntity
  8
0
  6
Continuous
 62
     7
370
    25
100
AcDbLine
 10
348.2682915914
 20
295.6359460334
 30
0.0
 11
348.2682915914
 21
300.6359459216
 31
0.0
  0
LINE
  5
1AE
330
1F
100
AcDbEntity
  8
0
  6
Continuous
 62
     7
370
    25
100
AcDbLine
 10
295.9044882141
 20
295.6359460334
 30
0.0
 11
348.2682915914
 21
295.6359460334
 31
0.0
  0
LINE
  5
1AF
330
1F
100
AcDbEntity
  8
0
  6
Continuous
 62
     7
370
    25
100
AcDbLine
 10
293.7682922042
 20
299.3359458017
 30
0.0
 11
295.9044882141
 21
295.6359460334
 31
0.0
  0
LINE
  5
1B0
330
1F
100
AcDbEntity
  8
0
  6
Continuous
 62
     7
370
    25
100
AcDbLine
 10
293.7682922042
 20
300.6359459216
 30
0.0
 11
348.2682915914
 21
300.6359459216
 31
0.0
  0
LINE
  5
1B1
330
1F
100
AcDbEntity
  8
0
  6
Continuous
 62
     7
370
    25
100
AcDbLine
 10
293.7682922042
 20
300.6359459216
 30
0.0
 11
293.7682922042
 21
299.3359458017
 31
0.0
  0
LINE
  5
1B2
330
1F
100
AcDbEntity
  8
0
  6
Continuous
 62
     7
370
    25
100
AcDbLine
 10
348.0611840773
 20
295.1359459514
 30
0.0
 11
348.2682915914
 21
295.6359460334
 31
0.0
  0
LINE
  5
1B3
330
1F
100
AcDbEntity
  8
0
  6
Continuous
 62
     7
370
    25
100
AcDbLine
 10
348.0611840773
 20
295.1359459514
 30
0.0
 11
296.1931633458
 21
295.1359459514
 31
0.0
  0
LINE
  5
1B4
330
1F
100
AcDbEntity
  8
0
  6
Continuous
 62
     7
370
    25
100
AcDbLine
 10
296.1931633458
 20
295.1359459514
 30
0.0
 11
295.9044882141
 21
295.6359460334
 31
0.0
  0
LINE
  5
1B5
330
1F
100
AcDbEntity
  8
0
  6
Continuous
 62
     7
370
    25
100
AcDbLine
 10
349.768290906
 20
300.6359459216
 30
0.0
 11
349.768290906
 21
295.6359460334
 31
0.0
  0
LINE
  5
1B6
330
1F
100
AcDbEntity
  8
0
  6
Continuous
 62
     7
370
    25
100
AcDbLine
 10
348.2682915914
 20
295.6359460334
 30
0.0
 11
349.768290906
 21
295.6359460334
 31
0.0
  0
LINE
  5
1B7
330
1F
100
AcDbEntity
  8
0
  6
Continuous
 62
     7
370
    25
100
AcDbLine
 10
348.2682915914
 20
300.6359459216
 30
0.0
 11
349.768290906
 21
300.6359459216
 31
0.0
  0
LINE
  5
1B8
330
1F
100
AcDbEntity
  8
0
  6
Continuous
 62
     7
370
    25
100
AcDbLine
 10
349.268293618
 20
295.1359459514
 30
0.0
 11
348.0611840773
 21
295.1359459514
 31
0.0
  0
LINE
  5
1B9
330
1F
100
AcDbEntity
  8
0
  6
Continuous
 62
     7
370
    25
100
AcDbLine
 10
349.268293618
 20
295.1359459514
 30
0.0
 11
349.768290906
 21
295.6359460334
 31
0.0
  0
LINE
  5
1BA
330
1F
100
AcDbEntity
  8
0
  6
Continuous
 62
     7
370
    25
100
AcDbLine
 10
236.2588929522
 20
300.6359459216
 30
0.0
 11
290.7588911753
 21
300.6359459216
 31
0.0
  0
LINE
  5
1BB
330
1F
100
AcDbEntity
  8
0
  6
Continuous
 62
     7
370
    25
100
AcDbLine
 10
290.7588911753
 20
300.6359459216
 30
0.0
 11
290.7588911753
 21
299.3359458017
 31
0.0
  0
LINE
  5
1BC
330
1F
100
AcDbEntity
  8
0
  6
Continuous
 62
     7
370
    25
100
AcDbLine
 10
288.6226951655
 20
295.6359460334
 30
0.0
 11
290.7588911753
 21
299.3359458017
 31
0.0
  0
LINE
  5
1BD
330
1F
100
AcDbEntity
  8
0
  6
Continuous
 62
     7
370
    25
100
AcDbLine
 10
236.2588929522
 20
295.6359460334
 30
0.0
 11
288.6226951655
 21
295.6359460334
 31
0.0
  0
LINE
  5
1BE
330
1F
100
AcDbEntity
  8
0
  6
Continuous
 62
     7
370
    25
100
AcDbLine
 10
236.2588929522
 20
300.6359459216
 30
0.0
 11
236.2588929522
 21
295.6359460334
 31
0.0
  0
LINE
  5
1BF
330
1F
100
AcDbEntity
  8
0
  6
Continuous
 62
     7
370
    25
100
AcDbLine
 10
234.7588899124
 20
300.6359459216
 30
0.0
 11
236.2588929522
 21
300.6359459216
 31
0.0
  0
LINE
  5
1C0
330
1F
100
AcDbEntity
  8
0
  6
Continuous
 62
     7
370
    25
100
AcDbLine
 10
234.7588899124
 20
295.6359460334
 30
0.0
 11
236.2588929522
 21
295.6359460334
 31
0.0
  0
LINE
  5
1C1
330
1F
100
AcDbEntity
  8
0
  6
Continuous
 62
     7
370
    25
100
AcDbLine
 10
234.7588899124
 20
295.6359460334
 30
0.0
 11
234.7588899124
 21
300.6359459216
 31
0.0
  0
LINE
  5
1C2
330
1F
100
AcDbEntity
  8
0
  6
Continuous
 62
     7
370
    25
100
AcDbLine
 10
236.4659967411
 20
295.1359459514
 30
0.0
 11
235.2588909257
 21
295.1359459514
 31
0.0
  0
LINE
  5
1C3
330
1F
100
AcDbEntity
  8
0
  6
Continuous
 62
     7
370
    25
100
AcDbLine
 10
235.2588909257
 20
295.1359459514
 30
0.0
 11
234.7588899124
 21
295.6359460334
 31
0.0
  0
LINE
  5
1C4
330
1F
100
AcDbEntity
  8
0
  6
Continuous
 62
     7
370
    25
100
AcDbLine
 10
236.4659967411
 20
295.1359459514
 30
0.0
 11
236.2588929522
 21
295.6359460334
 31
0.0
  0
LINE
  5
1C5
330
1F
100
AcDbEntity
  8
0
  6
Continuous
 62
     7
370
    25
100
AcDbLine
 10
288.3340200919
 20
295.1359459514
 30
0.0
 11
236.4659967411
 21
295.1359459514
 31
0.0
  0
LINE
  5
1C6
330
1F
100
AcDbEntity
  8
0
  6
Continuous
 62
     7
370
    25
100
AcDbLine
 10
288.6226951655
 20
295.6359460334
 30
0.0
 11
288.3340200919
 21
295.1359459514
 31
0.0
  0
LINE
  5
1C7
330
1F
100
AcDbEntity
  8
0
  6
Continuous
 62
     7
370
    25
100
AcDbLine
 10
291.7682921092
 20
315.0359456743
 30
0.0
 11
289.5682921212
 21
315.0359456743
 31
0.0
  0
LINE
  5
1C8
330
1F
100
AcDbEntity
  8
0
  6
Continuous
 62
     7
370
    25
100
AcDbLine
 10
291.7682921092
 20
295.0359461213
 30
0.0
 11
291.7682921092
 21
315.0359456743
 31
0.0
  0
LINE
  5
1C9
330
1F
100
AcDbEntity
  8
0
  6
Continuous
 62
     7
370
    25
100
AcDbLine
 10
263.9745573092
 20
295.0359461213
 30
0.0
 11
291.7682921092
 21
295.0359461213
 31
0.0
  0
LINE
  5
1CA
330
1F
100
AcDbEntity
  8
0
  6
Continuous
 62
     7
370
    25
100
AcDbLine
 10
263.5855140674
 20
295.1359459514
 30
0.0
 11
263.9745573092
 21
295.0359461213
 31
0.0
  0
LINE
  5
1CB
330
1F
100
AcDbEntity
  8
0
  6
Continuous
 62
     7
370
    25
100
AcDbLine
 10
235.2682935584
 20
315.0359456743
 30
0.0
 11
236.4753993738
 21
315.0359456743
 31
0.0
  0
LINE
  5
1CC
330
1F
100
AcDbEntity
  8
0
  6
Continuous
 62
     7
370
    25
100
AcDbLine
 10
236.4753993738
 20
315.0359456743
 30
0.0
 11
236.2682918597
 21
314.5359455923
 31
0.0
  0
LINE
  5
1CD
330
1F
100
AcDbEntity
  8
0
  6
Continuous
 62
     7
370
    25
100
AcDbLine
 10
236.2682918597
 20
314.5359455923
 30
0.0
 11
234.7682925451
 21
314.5359455923
 31
0.0
  0
LINE
  5
1CE
330
1F
100
AcDbEntity
  8
0
  6
Continuous
 62
     7
370
    25
100
AcDbLine
 10
235.2682935584
 20
315.0359456743
 30
0.0
 11
234.7682925451
 21
314.5359455923
 31
0.0
  0
LINE
  5
1CF
330
1F
100
AcDbEntity
  8
0
  6
Continuous
 62
     7
370
    25
100
AcDbLine
 10
236.2682918597
 20
314.5359455923
 30
0.0
 11
236.2682918597
 21
310.035945786
 31
0.0
  0
LINE
  5
1D0
330
1F
100
AcDbEntity
  8
0
  6
Continuous
 62
     7
370
    25
100
AcDbLine
 10
289.7653394889
 20
314.5359455923
 30
0.0
 11
236.2682918597
 21
314.5359455923
 31
0.0
  0
ARC
  5
1D1
330
1F
100
AcDbEntity
  8
0
  6
Continuous
 62
     7
370
    25
100
AcDbCircle
 10
272.9222165316
 20
308.1869923816
 30
0.0
 40
18.00000000000004
100
AcDbArc
 50
7.498337110599999
 51
20.6537509389
  0
LINE
  5
1D2
330
1F
100
AcDbEntity
  8
0
  6
Continuous
 62
     7
370
    25
100
AcDbLine
 10
290.768292411
 20
310.035945786
 30
0.0
 11
290.768292411
 21
310.535945868
 31
0.0
  0
LINE
  5
1D3
330
1F
100
AcDbEntity
  8
0
  6
Continuous
 62
     7
370
    25
100
AcDbLine
 10
236.2682918597
 20
310.035945786
 30
0.0
 11
290.768292411
 21
310.035945786
 31
0.0
  0
LINE
  5
1D4
330
1F
100
AcDbEntity
  8
0
  6
Continuous
 62
     7
370
    25
100
AcDbLine
 10
234.7682925451
 20
310.035945786
 30
0.0
 11
234.7682925451
 21
314.5359455923
 31
0.0
  0
LINE
  5
1D5
330
1F
100
AcDbEntity
  8
0
  6
Continuous
 62
     7
370
    25
100
AcDbLine
 10
236.2682918597
 20
310.035945786
 30
0.0
 11
234.7682925451
 21
310.035945786
 31
0.0
  0
LINE
  5
1D6
330
1F
100
AcDbEntity
  8
0
  6
Continuous
 62
     7
370
    25
100
AcDbLine
 10
236.4753993738
 20
315.0359456743
 30
0.0
 11
289.5682921212
 21
315.0359456743
 31
0.0
  0
ARC
  5
1D7
330
1F
100
AcDbEntity
  8
0
  6
Continuous
 62
     7
370
    25
100
AcDbCircle
 10
272.9222165316
 20
308.1869923816
 30
0.0
 40
18.00000000000004
100
AcDbArc
 50
20.6537509389
 51
22.3644972456
  0
LINE
  5
1D8
330
1F
100
AcDbEntity
  8
0
  6
Continuous
 62
     7
370
    25
100
AcDbLine
 10
283.5682925347
 20
301.3359458967
 30
0.0
 11
283.5682925347
 21
301.0359457078
 31
0.0
  0
LINE
  5
1D9
330
1F
100
AcDbEntity
  8
0
  6
Continuous
 62
     7
370
    25
100
AcDbLine
 10
283.5682925347
 20
301.0359457078
 30
0.0
 11
282.0278840649
 21
301.0359457078
 31
0.0
  0
LINE
  5
1DA
330
1F
100
AcDbEntity
  8
0
  6
Continuous
 62
     7
370
    25
100
AcDbLine
 10
290.768292411
 20
309.3359460438
 30
0.0
 11
290.768292411
 21
310.035945786
 31
0.0
  0
LINE
  5
1DB
330
1F
100
AcDbEntity
  8
0
  6
Continuous
 62
     7
370
    25
100
AcDbLine
 10
348.0611840773
 20
315.0359456743
 30
0.0
 11
348.2682915914
 21
314.5359455923
 31
0.0
  0
LINE
  5
1DC
330
1F
100
AcDbEntity
  8
0
  6
Continuous
 62
     7
370
    25
100
AcDbLine
 10
348.2682915914
 20
314.5359455923
 30
0.0
 11
291.9682922352
 21
314.5359455923
 31
0.0
  0
LINE
  5
1DD
330
1F
100
AcDbEntity
  8
0
  6
Continuous
 62
     7
370
    25
100
AcDbLine
 10
291.7682921092
 20
315.0359456743
 30
0.0
 11
348.0611840773
 21
315.0359456743
 31
0.0
  0
LINE
  5
1DE
330
1F
100
AcDbEntity
  8
0
  6
Continuous
 62
     7
370
    25
100
AcDbLine
 10
291.9682922352
 20
314.5359455923
 30
0.0
 11
291.7682921092
 21
315.0359456743
 31
0.0
  0
LINE
  5
1DF
330
1F
100
AcDbEntity
  8
0
  6
Continuous
 62
     7
370
    25
100
AcDbLine
 10
348.2682915914
 20
310.035945786
 30
0.0
 11
348.2682915914
 21
314.5359455923
 31
0.0
  0
LINE
  5
1E0
330
1F
100
AcDbEntity
  8
0
  6
Continuous
 62
     7
370
    25
100
AcDbLine
 10
348.2682915914
 20
310.035945786
 30
0.0
 11
293.7682922042
 21
310.035945786
 31
0.0
  0
LINE
  5
1E1
330
1F
100
AcDbEntity
  8
0
  6
Continuous
 62
     7
370
    25
100
AcDbLine
 10
291.9682922352
 20
314.5359455923
 30
0.0
 11
293.7682922042
 21
310.035945786
 31
0.0
  0
LINE
  5
1E2
330
1F
100
AcDbEntity
  8
0
  6
Continuous
 62
     7
370
    25
100
AcDbLine
 10
348.0611840773
 20
315.0359456743
 30
0.0
 11
349.268293618
 21
315.0359456743
 31
0.0
  0
LINE
  5
1E3
330
1F
100
AcDbEntity
  8
0
  6
Continuous
 62
     7
370
    25
100
AcDbLine
 10
349.268293618
 20
315.0359456743
 30
0.0
 11
349.768290906
 21
314.5359455923
 31
0.0
  0
LINE
  5
1E4
330
1F
100
AcDbEntity
  8
0
  6
Continuous
 62
     7
370
    25
100
AcDbLine
 10
349.768290906
 20
314.5359455923
 30
0.0
 11
348.2682915914
 21
314.5359455923
 31
0.0
  0
LINE
  5
1E5
330
1F
100
AcDbEntity
  8
0
  6
Continuous
 62
     7
370
    25
100
AcDbLine
 10
349.768290906
 20
314.5359455923
 30
0.0
 11
349.768290906
 21
310.035945786
 31
0.0
  0
LINE
  5
1E6
330
1F
100
AcDbEntity
  8
0
  6
Continuous
 62
     7
370
    25
100
AcDbLine
 10
349.768290906
 20
310.035945786
 30
0.0
 11
348.2682915914
 21
310.035945786
 31
0.0
  0
LINE
  5
1E7
330
1F
100
AcDbEntity
  8
0
  6
Continuous
 62
     7
370
    25
100
AcDbLine
 10
293.7682922042
 20
309.3359460438
 30
0.0
 11
293.7682922042
 21
310.035945786
 31
0.0
  0
LINE
  5
1E8
330
1F
100
AcDbEntity
  8
0
  6
Continuous
 62
     7
370
    25
100
AcDbLine
 10
321.5620281685
 20
295.0359461213
 30
0.0
 11
321.9510714102
 21
295.1359459514
 31
0.0
  0
LINE
  5
1E9
330
1F
100
AcDbEntity
  8
0
  6
Continuous
 62
     7
370
    25
100
AcDbLine
 10
321.5620281685
 20
295.0359461213
 30
0.0
 11
291.7682921092
 21
295.0359461213
 31
0.0
  0
LINE
  5
1EA
330
1F
100
AcDbEntity
  8
0
  6
Continuous
 62
     8
370
    25
100
AcDbLine
 10
305.3560346875
 20
301.3359458967
 30
0.0
 11
305.3560346875
 21
300.6359459216
 31
0.0
  0
LINE
  5
1EB
330
1F
100
AcDbEntity
  8
0
  6
Continuous
 62
     8
370
    25
100
AcDbLine
 10
340.0560344148
 20
300.6359459216
 30
0.0
 11
340.0560344148
 21
301.3359458967
 31
0.0
  0
LINE
  5
1EC
330
1F
100
AcDbEntity
  8
0
  6
Continuous
 62
     8
370
    25
100
AcDbLine
 10
306.5682925794
 20
310.035945786
 30
0.0
 11
306.5682925794
 21
309.3359460438
 31
0.0
  0
LINE
  5
1ED
330
1F
100
AcDbEntity
  8
0
  6
Continuous
 62
     8
370
    25
100
AcDbLine
 10
341.2682923067
 20
309.3359460438
 30
0.0
 11
341.2682923067
 21
310.035945786
 31
0.0
  0
LINE
  5
1EE
330
1F
100
AcDbEntity
  8
0
  6
Continuous
 62
     8
370
    25
100
AcDbLine
 10
243.2682911444
 20
301.3359458967
 30
0.0
 11
243.2682911444
 21
300.6359459216
 31
0.0
  0
LINE
  5
1EF
330
1F
100
AcDbEntity
  8
0
  6
Continuous
 62
     8
370
    25
100
AcDbLine
 10
277.968291803
 20
300.6359459216
 30
0.0
 11
277.968291803
 21
301.3359458967
 31
0.0
  0
LINE
  5
1F0
330
1F
100
AcDbEntity
  8
0
  6
Continuous
 62
     8
370
    25
100
AcDbLine
 10
243.2682911444
 20
310.035945786
 30
0.0
 11
243.2682911444
 21
309.3359460438
 31
0.0
  0
LINE
  5
1F1
330
1F
100
AcDbEntity
  8
0
  6
Continuous
 62
     8
370
    25
100
AcDbLine
 10
277.968291803
 20
309.3359460438
 30
0.0
 11
277.968291803
 21
310.035945786
 31
0.0
  0
CIRCLE
  5
1F2
330
1F
100
AcDbEntity
  8
0
  6
Continuous
 62
     7
370
    18
100
AcDbCircle
 10
271.0682922173
 20
305.0359458978
 30
0.0
 40
3.999999999995869
  0
DIMENSION
  5
1F3
330
1F
100
AcDbEntity
  8
0
  6
Continuous
 62
     7
370
    18
100
AcDbDimension
  2
_D
 10
290.7682922173
 20
322.6056515774
 30
0.0
 11
280.9182922173
 21
322.6056515774
 31
0.0
 70
   160
  1
<>
 71
     2
 42
-1.0
  3
SLDDIMSTYLE0
100
AcDbAlignedDimension
 13
271.0682922173
 23
305.0359458978
 33
0.0
 14
290.7682922173
 24
309.3359458978
 34
0.0
100
AcDbRotatedDimension
  0
DIMENSION
  5
1FE
330
1F
100
AcDbEntity
  8
0
  6
Continuous
 62
     7
370
    18
100
AcDbDimension
  2
_D_1
 10
197.2989105058
 20
295.1359458978
 30
0.0
 11
197.2989105058
 21
305.0859458978
 31
0.0
 70
   160
  1
<>
 71
     2
 42
-1.0
  3
SLDDIMSTYLE1
100
AcDbAlignedDimension
 13
235.2682922173
 23
315.0359458978
 33
0.0
 14
235.2588911405
 24
295.1359458978
 34
0.0
 50
90.0
100
AcDbRotatedDimension
  0
DIMENSION
  5
209
330
1F
100
AcDbEntity
  8
0
  6
Continuous
 62
     7
370
    18
100
AcDbDimension
  2
_D_2
 10
293.7682922173
 20
276.4754635133
 30
0.0
 11
304.8954159837
 21
276.4754635133
 31
0.0
 70
   160
  1
<>
 71
     2
 42
-1.0
  3
SLDDIMSTYLE2
100
AcDbAlignedDimension
 13
290.7682922173
 23
301.3359458978
 33
0.0
 14
293.7682922173
 24
301.3359458978
 34
0.0
100
AcDbRotatedDimension
  0
DIMENSION
  5
216
330
1F
100
AcDbEntity
  8
0
  6
Continuous
 62
     7
370
    18
100
AcDbDimension
  2
_D_3
 10
349.7682922173
 20
332.096467885
 30
0.0
 11
292.2682922173
 21
332.096467885
 31
0.0
 70
   160
  1
<>
 71
     2
 42
-1.0
  3
SLDDIMSTYLE0
100
AcDbAlignedDimension
 13
234.7682922173
 23
314.5359458978
 33
0.0
 14
349.7682922173
 24
314.5359458978
 34
0.0
100
AcDbRotatedDimension
  0
DIMENSION
  5
220
330
1F
100
AcDbEntity
  8
0
  6
Continuous
 62
     7
370
    18
100
AcDbDimension
  2
_D_4
 10
222.8318693874
 20
301.3359458978
 30
0.0
 11
222.8318693874
 21
328.3622201373
 31
0.0
 70
   160
  1
<>
 71
     2
 42
-1.0
  3
SLDDIMSTYLE2
100
AcDbAlignedDimension
 13
210.7682922173
 23
309.3359458978
 33
0.0
 14
210.7682922173
 24
301.3359458978
 34
0.0
 50
90.0
100
AcDbRotatedDimension
  0
INSERT
  5
235
330
1F
100
AcDbEntity
  8
0
  6
Continuous
 62
     7
370
     0
100
AcDbBlockReference
  2
SW_CENTERMARKSYMBOL_4
 10
271.0682922173
 20
305.0359458978
 30
0.0
  0
LINE
  5
236
330
1F
100
AcDbEntity
  8
0
  6
Continuous
 62
     7
370
    25
100
AcDbLine
 10
43.0760416233
 20
419.5588455375
 30
0.0
 11
43.0760416233
 21
390.5810713966
 31
0.0
  0
SPLINE
  5
237
330
1F
100
AcDbEntity
  8
0
  6
Continuous
 62
     7
370
    25
100
AcDbSpline
210
0.0
220
0.0
230
1.0
 70
     8
 71
     3
 72
    12
 73
     8
 74
     0
 42
0.000000001
 43
0.00000001
 40
0.0
 40
0.0
 40
0.0
 40
0.0
 40
0.0068051823408126
 40
0.2695046693617028
 40
0.5633302301902569
 40
0.8580299347015762
 40
1.0
 40
1.0
 40
1.0
 40
1.0
 10
50.13434161305744
 20
389.3918686057432
 30
0.0
 10
50.13700629144612
 20
389.3887361468265
 30
0.0
 10
50.24253517107516
 20
389.2646818214058
 30
0.0
 10
50.55881608926902
 20
389.0643032314989
 30
0.0
 10
51.11254217773321
 20
388.7754554195109
 30
0.0
 10
51.68580997782044
 20
388.5577295274333
 30
0.0
 10
52.10179041179451
 20
388.4477777329557
 30
0.0
 10
52.23703396071225
 20
388.4120302081191
 30
0.0
  0
LINE
  5
238
330
1F
100
AcDbEntity
  8
0
  6
Continuous
 62
     7
370
    25
100
AcDbLine
 10
45.6575765117
 20
419.9351776974
 30
0.0
 11
45.6575765117
 21
390.9574035564
 31
0.0
  0
LINE
  5
239
330
1F
100
AcDbEntity
  8
0
  6
Continuous
 62
     7
370
    25
100
AcDbLine
 10
51.0135236512
 20
388.8420938634
 30
0.0
 11
51.0135236512
 21
388.193184675
 31
0.0
  0
LINE
  5
23A
330
1F
100
AcDbEntity
  8
0
  6
Continuous
 62
     7
370
    25
100
AcDbLine
 10
124.6614063551
 20
429.1923195015
 30
0.0
 11
124.1614065059
 21
428.9681757011
 31
0.0
  0
LINE
  5
23B
330
1F
100
AcDbEntity
  8
0
  6
Continuous
 62
     7
370
    25
100
AcDbLine
 10
124.1614065059
 20
428.9681757011
 30
0.0
 11
124.1415331384
 21
429.35764098
 31
0.0
  0
ARC
  5
23C
330
1F
100
AcDbEntity
  8
0
  6
Continuous
 62
     7
370
    25
100
AcDbCircle
 10
120.5622213119
 20
429.1651047241
 30
0.0
 40
4.099275382624789
100
AcDbArc
 50
0.3803851154
 51
29.172352366
  0
LINE
  5
23D
330
1F
100
AcDbEntity
  8
0
  6
Continuous
 62
     7
370
    25
100
AcDbLine
 10
124.1614065059
 20
365.2170715115
 30
0.0
 11
124.1614065059
 21
428.9681757011
 31
0.0
  0
LINE
  5
23E
330
1F
100
AcDbEntity
  8
0
  6
Continuous
 62
     7
370
    25
100
AcDbLine
 10
124.1415331384
 20
364.8335455572
 30
0.0
 11
124.1614065059
 21
365.2170715115
 31
0.0
  0
LINE
  5
23F
330
1F
100
AcDbEntity
  8
0
  6
Continuous
 62
     7
370
    25
100
AcDbLine
 10
124.1614065059
 20
365.2170715115
 30
0.0
 11
124.6614063551
 21
365.4412153119
 31
0.0
  0
LINE
  5
240
330
1F
100
AcDbEntity
  8
0
  6
Continuous
 62
     7
370
    25
100
AcDbLine
 10
124.6614063551
 20
365.4412153119
 30
0.0
 11
124.6614063551
 21
429.1923195015
 31
0.0
  0
ARC
  5
241
330
1F
100
AcDbEntity
  8
0
  6
Continuous
 62
     7
370
    25
100
AcDbCircle
 10
121.4468987681
 20
365.379454377
 30
0.0
 40
3.215100844430528
100
AcDbArc
 50
326.9419560112
 51
1.10069909
  0
LWPOLYLINE
  5
242
330
1F
100
AcDbEntity
  8
0
  6
Continuous
 62
     7
370
    25
100
AcDbPolyline
 90
        9
 70
   128
 43
0.0
 10
71.1317177102
 20
434.1267010773
 10
71.1643761661
 20
434.0782263315
 10
71.2651205886
 20
433.8006416454
 10
71.2942633018
 20
433.4410496196
 10
71.2473674849
 20
433.0541929328
 10
71.1315726567
 20
432.6989638701
 10
70.9645073567
 20
432.4294499646
 10
70.7716060043
 20
432.2866748056
 10
70.6742657986
 20
432.2704866303
  0
LINE
  5
243
330
1F
100
AcDbEntity
  8
0
  6
Continuous
 62
     7
370
    25
100
AcDbLine
 10
70.4460112084
 20
432.805546557
 30
0.0
 11
70.6107144416
 21
432.4222784756
 31
0.0
  0
LINE
  5
244
330
1F
100
AcDbEntity
  8
0
  6
Continuous
 62
     7
370
    25
100
AcDbLine
 10
70.6107144416
 20
432.4222784756
 30
0.0
 11
71.0421824534
 21
432.6862928047
 31
0.0
  0
LINE
  5
245
330
1F
100
AcDbEntity
  8
0
  6
Continuous
 62
     7
370
    25
100
AcDbLine
 10
71.0421824534
 20
432.6862928047
 30
0.0
 11
71.226269769
 21
433.5259753657
 31
0.0
  0
LINE
  5
246
330
1F
100
AcDbEntity
  8
0
  6
Continuous
 62
     7
370
    25
100
AcDbLine
 10
71.226269769
 20
433.5259753657
 30
0.0
 11
71.006003831
 21
434.0385428333
 31
0.0
  0
LINE
  5
247
330
1F
100
AcDbEntity
  8
0
  6
Continuous
 62
     7
370
    25
100
AcDbLine
 10
70.459865764
 20
432.7733079482
 30
0.0
 11
71.0421824534
 21
432.6862928047
 31
0.0
  0
LINE
  5
248
330
1F
100
AcDbEntity
  8
0
  6
Continuous
 62
     7
370
    25
100
AcDbLine
 10
70.6308107668
 20
433.6149543551
 30
0.0
 11
71.226269769
 21
433.5259753657
 31
0.0
  0
LWPOLYLINE
  5
249
330
1F
100
AcDbEntity
  8
0
  6
Continuous
 62
     7
370
    25
100
AcDbPolyline
 90
        5
 70
   128
 43
0.0
 10
71.261453506
 20
370.3391227391
 10
71.1572233759
 20
369.9738101722
 10
70.9978177384
 20
369.6850711637
 10
70.8075047642
 20
369.5168609077
 10
70.6742657986
 20
369.4853066261
  0
ARC
  5
24A
330
1F
100
AcDbEntity
  8
0
  6
Continuous
 62
     7
370
    25
100
AcDbCircle
 10
70.0489093725
 20
370.6917857936
 30
0.0
 40
1.262788385203937
100
AcDbArc
 50
343.7831634057001
 51
30.9658526306
  0
LINE
  5
24B
330
1F
100
AcDbEntity
  8
0
  6
Continuous
 62
     7
370
    25
100
AcDbLine
 10
71.2225353983
 20
370.7987496149
 30
0.0
 11
70.9934284151
 21
371.2434721699
 31
0.0
  0
LINE
  5
24C
330
1F
100
AcDbEntity
  8
0
  6
Continuous
 62
     7
370
    25
100
AcDbLine
 10
70.4493625727
 20
369.9950647885
 30
0.0
 11
70.6393120982
 21
369.6263528291
 31
0.0
  0
LINE
  5
24D
330
1F
100
AcDbEntity
  8
0
  6
Continuous
 62
     7
370
    25
100
AcDbLine
 10
71.0670457393
 20
369.9483214116
 30
0.0
 11
70.6393120982
 21
369.6263528291
 31
0.0
  0
LINE
  5
24E
330
1F
100
AcDbEntity
  8
0
  6
Continuous
 62
     7
370
    25
100
AcDbLine
 10
71.0670457393
 20
369.9483214116
 30
0.0
 11
71.2225353983
 21
370.7987496149
 31
0.0
  0
LINE
  5
24F
330
1F
100
AcDbEntity
  8
0
  6
Continuous
 62
     7
370
    25
100
AcDbLine
 10
71.0670457393
 20
369.9483214116
 30
0.0
 11
70.4436684465
 21
370.04147221
 31
0.0
  0
LINE
  5
250
330
1F
100
AcDbEntity
  8
0
  6
Continuous
 62
     7
370
    25
100
AcDbLine
 10
71.2225353983
 20
370.7987496149
 30
0.0
 11
70.6635715289
 21
370.8822751641
 31
0.0
  0
ARC
  5
251
330
1F
100
AcDbEntity
  8
0
  6
Continuous
 62
     7
370
    25
100
AcDbCircle
 10
45.6948180859
 20
420.1434459001
 30
0.0
 40
1.040337614435021
100
AcDbArc
 50
145.2682076775
 51
217.119351344
  0
LINE
  5
252
330
1F
100
AcDbEntity
  8
0
  6
Continuous
 62
     7
370
    25
100
AcDbLine
 10
44.8652735196
 20
419.5156257311
 30
0.0
 11
44.3652734377
 21
419.2914818263
 31
0.0
  0
LINE
  5
253
330
1F
100
AcDbEntity
  8
0
  6
Continuous
 62
     7
370
    25
100
AcDbLine
 10
44.3652734377
 20
419.2914818263
 30
0.0
 11
43.3260414923
 21
419.4467734717
 31
0.0
  0
LWPOLYLINE
  5
254
330
1F
100
AcDbEntity
  8
0
  6
Continuous
 62
     7
370
    25
100
AcDbPolyline
 90
        9
 70
   128
 43
0.0
 10
43.1430279539
 20
419.6235503165
 10
43.1025758815
 20
419.6004429283
 10
43.080318956
 20
419.5757366678
 10
43.0771121817
 20
419.5503817584
 10
43.0930795062
 20
419.52535166
 10
43.1276063002
 20
419.5016088438
 10
43.1793645652
 20
419.4800659559
 10
43.2463705372
 20
419.4615499324
 10
43.3260414923
 20
419.4467734717
  0
LINE
  5
255
330
1F
100
AcDbEntity
  8
0
  6
Continuous
 62
     7
370
    25
100
AcDbLine
 10
43.1430279539
 20
419.6235503165
 30
0.0
 11
43.6430280358
 21
419.8476942213
 31
0.0
  0
LWPOLYLINE
  5
256
330
1F
100
AcDbEntity
  8
0
  6
Continuous
 62
     7
370
    25
100
AcDbPolyline
 90
        8
 70
   128
 43
0.0
 10
43.5866136738
 20
419.9975237989
 10
43.6066946507
 20
419.9911780998
 10
43.6584529157
 20
419.9696352118
 10
43.6929797097
 20
419.9458923956
 10
43.7089470342
 20
419.9208622972
 10
43.7057397943
 20
419.8955071791
 10
43.6834833344
 20
419.8708011273
 10
43.6430280358
 20
419.8476942213
  0
LINE
  5
257
330
1F
100
AcDbEntity
  8
0
  6
Continuous
 62
     7
370
    25
100
AcDbLine
 10
44.8652735196
 20
390.5378515901
 30
0.0
 11
44.8652735196
 21
419.5156257311
 31
0.0
  0
LINE
  5
258
330
1F
100
AcDbEntity
  8
0
  6
Continuous
 62
     7
370
    25
100
AcDbLine
 10
44.8652735196
 20
390.5378515901
 30
0.0
 11
44.3652734377
 21
390.3137076854
 31
0.0
  0
LINE
  5
259
330
1F
100
AcDbEntity
  8
0
  6
Continuous
 62
     7
370
    25
100
AcDbLine
 10
44.3652734377
 20
390.3137076854
 30
0.0
 11
44.3652734377
 21
419.2914818263
 31
0.0
  0
LINE
  5
25A
330
1F
100
AcDbEntity
  8
0
  6
Continuous
 62
     7
370
    25
100
AcDbLine
 10
44.3652734377
 20
390.3137076854
 30
0.0
 11
43.3260414923
 21
390.4689993307
 31
0.0
  0
LINE
  5
25B
330
1F
100
AcDbEntity
  8
0
  6
Continuous
 62
     7
370
    25
100
AcDbLine
 10
43.3260414923
 20
419.4467734717
 30
0.0
 11
43.3260414923
 21
390.4689993307
 31
0.0
  0
LWPOLYLINE
  5
25C
330
1F
100
AcDbEntity
  8
0
  6
Continuous
 62
     7
370
    25
100
AcDbPolyline
 90
        7
 70
   128
 43
0.0
 10
43.3260414923
 20
390.4689993307
 10
43.2463705372
 20
390.4837757914
 10
43.1793645652
 20
390.5022918149
 10
43.1276063002
 20
390.5238347029
 10
43.0930795062
 20
390.547577519
 10
43.0771121817
 20
390.5726076175
 10
43.0760416233
 20
390.5810713966
  0
LWPOLYLINE
  5
25D
330
1F
100
AcDbEntity
  8
0
  6
Continuous
 62
     7
370
    25
100
AcDbPolyline
 90
        3
 70
   128
 43
0.0
 10
45.657577413
 20
392.5156204899
 10
45.2403853744
 20
392.2065009419
 10
44.865272012
 20
391.7969163887
  0
LWPOLYLINE
  5
25E
330
1F
100
AcDbEntity
  8
0
  6
Continuous
 62
     7
370
    25
100
AcDbPolyline
 90
       16
 70
   128
 43
0.0
 10
61.9379122349
 20
418.1812111937
 10
61.8429352433
 20
418.1693055783
 10
60.7137522246
 20
418.0547954974
 10
59.5330989811
 20
417.983042996
 10
58.3250067987
 20
417.9555089924
 10
57.1140725228
 20
417.9727538192
 10
55.9249459342
 20
418.0344262889
 10
54.7818343065
 20
418.1392710662
 10
53.7080079618
 20
418.2851538445
 10
52.7253271653
 20
418.4691047645
 10
51.8537972751
 20
418.6873793213
 10
51.1111583354
 20
418.9355337473
 10
50.5125285514
 20
419.2085168364
 10
50.0700959766
 20
419.5007708468
 10
49.7928658952
 20
419.8063467653
 10
49.7040397571
 20
420.0093095259
  0
ARC
  5
25F
330
1F
100
AcDbEntity
  8
0
  6
Continuous
 62
     7
370
    25
100
AcDbCircle
 10
58.1773282899
 20
413.5586861005
 30
0.0
 40
25.82024584984207
100
AcDbArc
 50
257.1809436901
 51
275.1593211331
  0
LINE
  5
260
330
1F
100
AcDbEntity
  8
0
  6
Continuous
 62
     7
370
    25
100
AcDbLine
 10
72.3878932716
 20
440.477547827
 30
0.0
 11
72.3878932716
 21
434.233431891
 31
0.0
  0
ELLIPSE
  5
261
330
1F
100
AcDbEntity
  8
0
  6
Continuous
 62
     7
370
    25
100
AcDbEllipse
 10
71.6878932896
 20
433.1285045477
 30
0.0
 11
1.006066259705818
 21
0.8669008032375702
 31
0.0
210
0.0
220
0.0
230
1.0
 40
0.8557412308
 41
0.341041945680843
 42
4.671406199272799
  0
LINE
  5
262
330
1F
100
AcDbEntity
  8
0
  6
Continuous
 62
     7
370
    25
100
AcDbLine
 10
72.3878932716
 20
432.2327757928
 30
0.0
 11
72.3878932716
 21
417.8748841049
 31
0.0
  0
LINE
  5
263
330
1F
100
AcDbEntity
  8
0
  6
Continuous
 62
     7
370
    25
100
AcDbLine
 10
72.3878932716
 20
417.8748841049
 30
0.0
 11
68.1878933874
 21
417.2472813019
 31
0.0
  0
LINE
  5
264
330
1F
100
AcDbEntity
  8
0
  6
Continuous
 62
     7
370
    25
100
AcDbLine
 10
68.1878933874
 20
417.2472813019
 30
0.0
 11
68.1878933874
 21
439.3669847303
 31
0.0
  0
LINE
  5
265
330
1F
100
AcDbEntity
  8
0
  6
Continuous
 62
     7
370
    25
100
AcDbLine
 10
68.6878933755
 20
439.9246596728
 30
0.0
 11
68.1878933874
 21
439.3669847303
 31
0.0
  0
LINE
  5
266
330
1F
100
AcDbEntity
  8
0
  6
Continuous
 62
     7
370
    25
100
AcDbLine
 10
68.6878933755
 20
439.9246596728
 30
0.0
 11
72.3878932716
 21
440.477547827
 31
0.0
  0
LINE
  5
267
330
1F
100
AcDbEntity
  8
0
  6
Continuous
 62
     7
370
    25
100
AcDbLine
 10
25.8395103642
 20
447.8217536314
 30
0.0
 11
73.0378933316
 21
440.7689348823
 31
0.0
  0
LINE
  5
268
330
1F
100
AcDbEntity
  8
0
  6
Continuous
 62
     7
370
    25
100
AcDbLine
 10
73.0378933316
 20
440.7689348823
 30
0.0
 11
72.3878932716
 21
440.477547827
 31
0.0
  0
LINE
  5
269
330
1F
100
AcDbEntity
  8
0
  6
Continuous
 62
     7
370
    25
100
AcDbLine
 10
23.3395104201
 20
446.7010343162
 30
0.0
 11
68.6878933755
 21
439.9246596728
 31
0.0
  0
LINE
  5
26A
330
1F
100
AcDbEntity
  8
0
  6
Continuous
 62
     7
370
    25
100
AcDbLine
 10
25.8395103642
 20
447.8217536314
 30
0.0
 11
23.3395104201
 21
446.7010343162
 31
0.0
  0
LINE
  5
26B
330
1F
100
AcDbEntity
  8
0
  6
Continuous
 62
     7
370
    25
100
AcDbLine
 10
68.1878933874
 20
439.3669847303
 30
0.0
 11
23.2688675215
 21
446.0792008679
 31
0.0
  0
LINE
  5
26C
330
1F
100
AcDbEntity
  8
0
  6
Continuous
 62
     7
370
    25
100
AcDbLine
 10
23.2688675215
 20
446.0792008679
 30
0.0
 11
23.3395104201
 21
446.7010343162
 31
0.0
  0
LINE
  5
26D
330
1F
100
AcDbEntity
  8
0
  6
Continuous
 62
     7
370
    25
100
AcDbLine
 10
22.2234832203
 20
445.0694335746
 30
0.0
 11
22.2234832203
 21
371.0932463468
 31
0.0
  0
LINE
  5
26E
330
1F
100
AcDbEntity
  8
0
  6
Continuous
 62
     7
370
    25
100
AcDbLine
 10
23.2688675215
 20
446.0792008679
 30
0.0
 11
22.2234832203
 21
445.0694335746
 31
0.0
  0
LINE
  5
26F
330
1F
100
AcDbEntity
  8
0
  6
Continuous
 62
     7
370
    25
100
AcDbLine
 10
68.1878933874
 20
417.2472813019
 30
0.0
 11
44.1339258173
 21
420.8416475238
 31
0.0
  0
ARC
  5
270
330
1F
100
AcDbEntity
  8
0
  6
Continuous
 62
     7
370
    25
100
AcDbCircle
 10
43.9959610393
 20
419.6846609343
 30
0.0
 40
1.165183353959421
100
AcDbArc
 50
83.1998789148
 51
184.8141754765
  0
LINE
  5
271
330
1F
100
AcDbEntity
  8
0
  6
Continuous
 62
     7
370
    25
100
AcDbLine
 10
42.8348883052
 20
419.5868736416
 30
0.0
 11
42.8348883052
 21
390.4159128644
 31
0.0
  0
ARC
  5
272
330
1F
100
AcDbEntity
  8
0
  6
Continuous
 62
     7
370
    25
100
AcDbCircle
 10
44.4838234785
 20
390.3845989591
 30
0.0
 40
1.649232477970807
100
AcDbArc
 50
178.9120621553
 51
257.7511606009001
  0
LINE
  5
273
330
1F
100
AcDbEntity
  8
0
  6
Continuous
 62
     7
370
    25
100
AcDbLine
 10
44.1339258173
 20
388.7729105919
 30
0.0
 11
68.1878933874
 21
385.17854437
 31
0.0
  0
LINE
  5
274
330
1F
100
AcDbEntity
  8
0
  6
Continuous
 62
     7
370
    25
100
AcDbLine
 10
68.1878933874
 20
363.0588409415
 30
0.0
 11
68.1878933874
 21
385.17854437
 31
0.0
  0
LINE
  5
275
330
1F
100
AcDbEntity
  8
0
  6
Continuous
 62
     7
370
    25
100
AcDbLine
 10
23.2688675215
 20
369.771057079
 30
0.0
 11
68.1878933874
 21
363.0588409415
 31
0.0
  0
LINE
  5
276
330
1F
100
AcDbEntity
  8
0
  6
Continuous
 62
     7
370
    25
100
AcDbLine
 10
22.2234832203
 20
371.0932463468
 30
0.0
 11
23.2688675215
 21
369.771057079
 31
0.0
  0
ARC
  5
277
330
1F
100
AcDbEntity
  8
0
  6
Continuous
 62
     7
370
    25
100
AcDbCircle
 10
70.7952550415
 20
433.2331038419
 30
0.0
 40
1.880731968586004
100
AcDbArc
 50
327.8672771667
 51
32.1327228333
  0
LINE
  5
278
330
1F
100
AcDbEntity
  8
0
  6
Continuous
 62
     7
370
    25
100
AcDbLine
 10
73.0378933316
 20
440.7689348823
 30
0.0
 11
73.0378933316
 21
418.1662711603
 31
0.0
  0
LINE
  5
279
330
1F
100
AcDbEntity
  8
0
  6
Continuous
 62
     7
370
    25
100
AcDbLine
 10
73.0378933316
 20
418.1662711603
 30
0.0
 11
72.3878932716
 21
417.8748841049
 31
0.0
  0
LINE
  5
27A
330
1F
100
AcDbEntity
  8
0
  6
Continuous
 62
     7
370
    25
100
AcDbLine
 10
72.8235340742
 20
386.0014396022
 30
0.0
 11
72.3878932716
 21
385.806147173
 31
0.0
  0
LINE
  5
27B
330
1F
100
AcDbEntity
  8
0
  6
Continuous
 62
     7
370
    25
100
AcDbLine
 10
68.1878933874
 20
385.17854437
 30
0.0
 11
72.3878932716
 21
385.806147173
 31
0.0
  0
LINE
  5
27C
330
1F
100
AcDbEntity
  8
0
  6
Continuous
 62
     7
370
    25
100
AcDbLine
 10
44.8839259402
 20
389.1091264491
 30
0.0
 11
44.1339258173
 21
388.7729105919
 31
0.0
  0
LINE
  5
27D
330
1F
100
AcDbEntity
  8
0
  6
Continuous
 62
     7
370
    25
100
AcDbLine
 10
68.9264195217
 20
386.5837824889
 30
0.0
 11
67.1407789169
 21
385.7833017047
 31
0.0
  0
LINE
  5
27E
330
1F
100
AcDbEntity
  8
0
  6
Continuous
 62
     7
370
    25
100
AcDbLine
 10
67.1407789169
 20
385.7833017047
 30
0.0
 11
44.8839259402
 21
389.1091264491
 31
0.0
  0
LINE
  5
27F
330
1F
100
AcDbEntity
  8
0
  6
Continuous
 62
     7
370
    25
100
AcDbLine
 10
72.3878932716
 20
385.806147173
 30
0.0
 11
72.3878932716
 21
371.4482554852
 31
0.0
  0
ELLIPSE
  5
280
330
1F
100
AcDbEntity
  8
0
  6
Continuous
 62
     7
370
    25
100
AcDbEllipse
 10
71.6878932896
 20
370.3433258389
 30
0.0
 11
1.006066259705818
 21
0.8669008032376267
 31
0.0
210
0.0
220
0.0
230
1.0
 40
0.8557412308
 41
0.3410419456808007
 42
4.671406199272775
  0
LINE
  5
281
330
1F
100
AcDbEntity
  8
0
  6
Continuous
 62
     7
370
    25
100
AcDbLine
 10
72.3878932716
 20
369.447599387
 30
0.0
 11
72.3878932716
 21
363.203483451
 31
0.0
  0
LINE
  5
282
330
1F
100
AcDbEntity
  8
0
  6
Continuous
 62
     7
370
    25
100
AcDbLine
 10
72.3878932716
 20
363.203483451
 30
0.0
 11
68.6878933755
 21
362.6505952969
 31
0.0
  0
LINE
  5
283
330
1F
100
AcDbEntity
  8
0
  6
Continuous
 62
     7
370
    25
100
AcDbLine
 10
68.1878933874
 20
363.0588409415
 30
0.0
 11
68.6878933755
 21
362.6505952969
 31
0.0
  0
LINE
  5
284
330
1F
100
AcDbEntity
  8
0
  6
Continuous
 62
     7
370
    25
100
AcDbLine
 10
73.0378933316
 20
363.4948705064
 30
0.0
 11
72.3878932716
 21
363.203483451
 31
0.0
  0
ARC
  5
285
330
1F
100
AcDbEntity
  8
0
  6
Continuous
 62
     7
370
    25
100
AcDbCircle
 10
70.7952539661
 20
370.4479274361
 30
0.0
 40
1.880732879253367
100
AcDbArc
 50
327.867294592
 51
32.132705408
  0
LINE
  5
286
330
1F
100
AcDbEntity
  8
0
  6
Continuous
 62
     7
370
    25
100
AcDbLine
 10
73.0378933316
 20
385.9694076336
 30
0.0
 11
73.0378933316
 21
363.4948705064
 31
0.0
  0
LINE
  5
287
330
1F
100
AcDbEntity
  8
0
  6
Continuous
 62
     7
370
    25
100
AcDbLine
 10
43.5848884282
 20
419.9230894988
 30
0.0
 11
42.8348883052
 21
419.5868736416
 31
0.0
  0
ARC
  5
288
330
1F
100
AcDbEntity
  8
0
  6
Continuous
 62
     7
370
    25
100
AcDbCircle
 10
44.9269228072
 20
419.9560052287
 30
0.0
 40
1.342437976102116
100
AcDbArc
 50
138.0079758693
 51
181.4049970731
  0
LINE
  5
289
330
1F
100
AcDbEntity
  8
0
  6
Continuous
 62
     7
370
    25
100
AcDbLine
 10
23.2688675215
 20
369.771057079
 30
0.0
 11
23.3395104201
 21
369.4269699403
 31
0.0
  0
LINE
  5
28A
330
1F
100
AcDbEntity
  8
0
  6
Continuous
 62
     7
370
    25
100
AcDbLine
 10
68.6878933755
 20
362.6505952969
 30
0.0
 11
23.3395104201
 21
369.4269699403
 31
0.0
  0
LINE
  5
28B
330
1F
100
AcDbEntity
  8
0
  6
Continuous
 62
     7
370
    25
100
AcDbLine
 10
43.5848884282
 20
419.9230894988
 30
0.0
 11
43.5848884282
 21
419.8216303063
 31
0.0
  0
LINE
  5
28C
330
1F
100
AcDbEntity
  8
0
  6
Continuous
 62
     7
370
    25
100
AcDbLine
 10
22.2234832203
 20
445.0694335746
 30
0.0
 11
22.0404696818
 21
445.4462609161
 31
0.0
  0
LINE
  5
28D
330
1F
100
AcDbEntity
  8
0
  6
Continuous
 62
     7
370
    25
100
AcDbLine
 10
22.0404696818
 20
445.4462609161
 30
0.0
 11
23.3395104201
 21
446.7010343162
 31
0.0
  0
LINE
  5
28E
330
1F
100
AcDbEntity
  8
0
  6
Continuous
 62
     7
370
    25
100
AcDbLine
 10
22.2234832203
 20
371.0932463468
 30
0.0
 11
22.0404696818
 21
371.0699726949
 31
0.0
  0
LINE
  5
28F
330
1F
100
AcDbEntity
  8
0
  6
Continuous
 62
     7
370
    25
100
AcDbLine
 10
22.0404696818
 20
371.0699726949
 30
0.0
 11
22.0404696818
 21
445.4462609161
 31
0.0
  0
ARC
  5
290
330
1F
100
AcDbEntity
  8
0
  6
Continuous
 62
     7
370
    25
100
AcDbCircle
 10
45.2011971305
 20
390.6819377829
 30
0.0
 40
1.604492598871992
100
AcDbArc
 50
189.1977623228
 51
258.5952114416
  0
LINE
  5
291
330
1F
100
AcDbEntity
  8
0
  6
Continuous
 62
     7
370
    25
100
AcDbLine
 10
23.3395104201
 20
369.4269699403
 30
0.0
 11
22.0404696818
 21
371.0699726949
 31
0.0
  0
LINE
  5
292
330
1F
100
AcDbEntity
  8
0
  6
Continuous
 62
     7
370
    25
100
AcDbLine
 10
120.9585222221
 20
430.3155312058
 30
0.0
 11
119.9131346947
 21
431.6377209557
 31
0.0
  0
LINE
  5
293
330
1F
100
AcDbEntity
  8
0
  6
Continuous
 62
     7
370
    25
100
AcDbLine
 10
119.9131346947
 20
431.6377209557
 30
0.0
 11
120.3424951043
 21
432.2059515171
 31
0.0
  0
LINE
  5
294
330
1F
100
AcDbEntity
  8
0
  6
Continuous
 62
     7
370
    25
100
AcDbLine
 10
120.3424951043
 20
432.2059515171
 30
0.0
 11
121.6415326163
 21
430.5629492446
 31
0.0
  0
LINE
  5
295
330
1F
100
AcDbEntity
  8
0
  6
Continuous
 62
     7
370
    25
100
AcDbLine
 10
120.9585222221
 20
430.3155312058
 30
0.0
 11
121.6415326163
 21
430.5629492446
 31
0.0
  0
LINE
  5
296
330
1F
100
AcDbEntity
  8
0
  6
Continuous
 62
     7
370
    25
100
AcDbLine
 10
120.9585222221
 20
356.339343978
 30
0.0
 11
120.9585222221
 21
430.3155312058
 31
0.0
  0
LINE
  5
297
330
1F
100
AcDbEntity
  8
0
  6
Continuous
 62
     7
370
    25
100
AcDbLine
 10
119.9131346947
 20
355.3295771668
 30
0.0
 11
120.9585222221
 21
356.339343978
 31
0.0
  0
LINE
  5
298
330
1F
100
AcDbEntity
  8
0
  6
Continuous
 62
     7
370
    25
100
AcDbLine
 10
74.9941110972
 20
362.0417929654
 30
0.0
 11
119.9131346947
 21
355.3295771668
 31
0.0
  0
LINE
  5
299
330
1F
100
AcDbEntity
  8
0
  6
Continuous
 62
     7
370
    25
100
AcDbLine
 10
74.9941110972
 20
384.1614963938
 30
0.0
 11
74.9941110972
 21
362.0417929654
 31
0.0
  0
LINE
  5
29A
330
1F
100
AcDbEntity
  8
0
  6
Continuous
 62
     7
370
    25
100
AcDbLine
 10
74.9941110972
 20
384.1614963938
 30
0.0
 11
99.048078012
 21
380.5671302698
 31
0.0
  0
ARC
  5
29B
330
1F
100
AcDbEntity
  8
0
  6
Continuous
 62
     7
370
    25
100
AcDbCircle
 10
99.1860417347
 20
381.7241194257
 30
0.0
 40
1.165185777340802
100
AcDbArc
 50
263.1999453849
 51
4.8140269013
  0
LINE
  5
29C
330
1F
100
AcDbEntity
  8
0
  6
Continuous
 62
     7
370
    25
100
AcDbLine
 10
100.3471171372
 20
381.821903911
 30
0.0
 11
100.3471171372
 21
410.9928646882
 31
0.0
  0
ARC
  5
29D
330
1F
100
AcDbEntity
  8
0
  6
Continuous
 62
     7
370
    25
100
AcDbCircle
 10
98.6981777404
 20
411.0241751471
 30
0.0
 40
1.649236635228268
100
AcDbArc
 50
358.9121846484
 51
77.7510991576
  0
LINE
  5
29E
330
1F
100
AcDbEntity
  8
0
  6
Continuous
 62
     7
370
    25
100
AcDbLine
 10
99.048078012
 20
412.6358672017
 30
0.0
 11
74.9941110972
 21
416.2302333257
 31
0.0
  0
LINE
  5
29F
330
1F
100
AcDbEntity
  8
0
  6
Continuous
 62
     7
370
    25
100
AcDbLine
 10
74.9941110972
 20
438.3499367542
 30
0.0
 11
74.9941110972
 21
416.2302333257
 31
0.0
  0
LINE
  5
2A0
330
1F
100
AcDbEntity
  8
0
  6
Continuous
 62
     7
370
    25
100
AcDbLine
 10
119.9131346947
 20
431.6377209557
 30
0.0
 11
74.9941110972
 21
438.3499367542
 31
0.0
  0
LINE
  5
2A1
330
1F
100
AcDbEntity
  8
0
  6
Continuous
 62
     7
370
    25
100
AcDbLine
 10
121.6415326163
 20
430.5629492446
 30
0.0
 11
121.6415326163
 21
356.1866610234
 31
0.0
  0
LINE
  5
2A2
330
1F
100
AcDbEntity
  8
0
  6
Continuous
 62
     7
370
    25
100
AcDbLine
 10
120.9585222221
 20
356.339343978
 30
0.0
 11
121.6415326163
 21
356.1866610234
 31
0.0
  0
LINE
  5
2A3
330
1F
100
AcDbEntity
  8
0
  6
Continuous
 62
     7
370
    25
100
AcDbLine
 10
122.8424950484
 20
433.3266708322
 30
0.0
 11
124.1415325604
 21
431.6836685598
 31
0.0
  0
LINE
  5
2A4
330
1F
100
AcDbEntity
  8
0
  6
Continuous
 62
     7
370
    25
100
AcDbLine
 10
124.1415325604
 20
431.6836685598
 30
0.0
 11
121.6415326163
 21
430.5629492446
 31
0.0
  0
LINE
  5
2A5
330
1F
100
AcDbEntity
  8
0
  6
Continuous
 62
     7
370
    25
100
AcDbLine
 10
120.3424951043
 20
432.2059515171
 30
0.0
 11
122.8424950484
 21
433.3266708322
 31
0.0
  0
LINE
  5
2A6
330
1F
100
AcDbEntity
  8
0
  6
Continuous
 62
     7
370
    25
100
AcDbLine
 10
74.9941111407
 20
438.9823263111
 30
0.0
 11
120.3424951043
 21
432.2059515171
 31
0.0
  0
LINE
  5
2A7
330
1F
100
AcDbEntity
  8
0
  6
Continuous
 62
     7
370
    25
100
AcDbLine
 10
74.9941110972
 20
438.3499367542
 30
0.0
 11
74.9941111407
 21
438.9823263111
 31
0.0
  0
LINE
  5
2A8
330
1F
100
AcDbEntity
  8
0
  6
Continuous
 62
     7
370
    25
100
AcDbLine
 10
124.1415325604
 20
431.6836685598
 30
0.0
 11
124.1415325604
 21
357.3073803385
 31
0.0
  0
LINE
  5
2A9
330
1F
100
AcDbEntity
  8
0
  6
Continuous
 62
     7
370
    25
100
AcDbLine
 10
121.6415326163
 20
356.1866610234
 30
0.0
 11
124.1415325604
 21
357.3073803385
 31
0.0
  0
LINE
  5
2AA
330
1F
100
AcDbEntity
  8
0
  6
Continuous
 62
     7
370
    25
100
AcDbLine
 10
75.6441110728
 20
440.379489732
 30
0.0
 11
74.9941110129
 21
440.0881026766
 31
0.0
  0
LINE
  5
2AB
330
1F
100
AcDbEntity
  8
0
  6
Continuous
 62
     7
370
    25
100
AcDbLine
 10
75.6441110728
 20
440.379489732
 30
0.0
 11
122.8424950484
 21
433.3266708322
 31
0.0
  0
LINE
  5
2AC
330
1F
100
AcDbEntity
  8
0
  6
Continuous
 62
     7
370
    25
100
AcDbLine
 10
74.9941110129
 20
440.0881026766
 30
0.0
 11
74.9941111407
 21
438.9823263111
 31
0.0
  0
LINE
  5
2AD
330
1F
100
AcDbEntity
  8
0
  6
Continuous
 62
     7
370
    25
100
AcDbLine
 10
121.6415326163
 20
356.1866610234
 30
0.0
 11
120.3424951043
 21
354.9318871412
 31
0.0
  0
LINE
  5
2AE
330
1F
100
AcDbEntity
  8
0
  6
Continuous
 62
     7
370
    25
100
AcDbLine
 10
119.9131346947
 20
355.3295771668
 30
0.0
 11
120.3424951043
 21
354.9318871412
 31
0.0
  0
LINE
  5
2AF
330
1F
100
AcDbEntity
  8
0
  6
Continuous
 62
     7
370
    25
100
AcDbLine
 10
122.8424950484
 20
356.0526064563
 30
0.0
 11
120.3424951043
 21
354.9318871412
 31
0.0
  0
LINE
  5
2B0
330
1F
100
AcDbEntity
  8
0
  6
Continuous
 62
     7
370
    25
100
AcDbLine
 10
124.1415325604
 20
357.3073803385
 30
0.0
 11
122.8424950484
 21
356.0526064563
 31
0.0
  0
LINE
  5
2B1
330
1F
100
AcDbEntity
  8
0
  6
Continuous
 62
     7
370
    25
100
AcDbLine
 10
120.3424951043
 20
354.9318871412
 30
0.0
 11
74.9941111407
 21
361.7082619352
 31
0.0
  0
LINE
  5
2B2
330
1F
100
AcDbEntity
  8
0
  6
Continuous
 62
     7
370
    25
100
AcDbLine
 10
74.9941111407
 20
361.7082619352
 30
0.0
 11
74.9941110972
 21
362.0417929654
 31
0.0
  0
LINE
  5
2B3
330
1F
100
AcDbEntity
  8
0
  6
Continuous
 62
     7
370
    25
100
AcDbLine
 10
99.048078012
 20
380.5671302698
 30
0.0
 11
99.7980781349
 21
380.903346127
 31
0.0
  0
LINE
  5
2B4
330
1F
100
AcDbEntity
  8
0
  6
Continuous
 62
     7
370
    25
100
AcDbLine
 10
99.7980781349
 20
380.903346127
 30
0.0
 11
100.0028335056
 21
380.8908602027
 31
0.0
  0
LINE
  5
2B5
330
1F
100
AcDbEntity
  8
0
  6
Continuous
 62
     7
370
    25
100
AcDbLine
 10
74.9941110129
 20
385.4167020227
 30
0.0
 11
74.9941110972
 21
384.1614963938
 31
0.0
  0
LINE
  5
2B6
330
1F
100
AcDbEntity
  8
0
  6
Continuous
 62
     7
370
    25
100
AcDbLine
 10
75.4297518155
 20
385.6119944519
 30
0.0
 11
74.9941110129
 21
385.4167020227
 31
0.0
  0
LINE
  5
2B7
330
1F
100
AcDbEntity
  8
0
  6
Continuous
 62
     7
370
    25
100
AcDbLine
 10
77.5412255616
 20
384.2291708111
 30
0.0
 11
79.3268661664
 21
385.0296515953
 31
0.0
  0
LINE
  5
2B8
330
1F
100
AcDbEntity
  8
0
  6
Continuous
 62
     7
370
    25
100
AcDbLine
 10
99.7980781349
 20
380.903346127
 30
0.0
 11
77.5412255616
 21
384.2291708111
 31
0.0
  0
LINE
  5
2B9
330
1F
100
AcDbEntity
  8
0
  6
Continuous
 62
     7
370
    25
100
AcDbLine
 10
79.5412254237
 20
383.9303118142
 30
0.0
 11
79.5412254237
 21
384.9976196267
 31
0.0
  0
LINE
  5
2BA
330
1F
100
AcDbEntity
  8
0
  6
Continuous
 62
     7
370
    25
100
AcDbLine
 10
71.1120602828
 20
386.2571839146
 30
0.0
 11
71.1120602828
 21
415.2349580556
 31
0.0
  0
LINE
  5
2BB
330
1F
100
AcDbEntity
  8
0
  6
Continuous
 62
     7
370
    25
100
AcDbLine
 10
71.1120602828
 20
415.2349580556
 30
0.0
 11
74.9941110299
 21
416.9752337964
 31
0.0
  0
LINE
  5
2BC
330
1F
100
AcDbEntity
  8
0
  6
Continuous
 62
     7
370
    25
100
AcDbLine
 10
47.0419798799
 20
418.831732006
 30
0.0
 11
71.1120602828
 21
415.2349580556
 31
0.0
  0
LINE
  5
2BD
330
1F
100
AcDbEntity
  8
0
  6
Continuous
 62
     7
370
    25
100
AcDbLine
 10
46.0499909925
 20
419.0832902394
 30
0.0
 11
47.0419798799
 21
418.831732006
 31
0.0
  0
ARC
  5
2BE
330
1F
100
AcDbEntity
  8
0
  6
Continuous
 62
     7
370
    25
100
AcDbCircle
 10
46.7749764021
 20
419.9230285956
 30
0.0
 40
1.109398193186821
100
AcDbArc
 50
143.6541239959
 51
229.1944208779
  0
LINE
  5
2BF
330
1F
100
AcDbEntity
  8
0
  6
Continuous
 62
     7
370
    25
100
AcDbLine
 10
47.0419798799
 20
389.853957865
 30
0.0
 11
71.1120602828
 21
386.2571839146
 31
0.0
  0
LINE
  5
2C0
330
1F
100
AcDbEntity
  8
0
  6
Continuous
 62
     7
370
    25
100
AcDbLine
 10
47.0419798799
 20
418.831732006
 30
0.0
 11
47.0419798799
 21
389.853957865
 31
0.0
  0
LINE
  5
2C1
330
1F
100
AcDbEntity
  8
0
  6
Continuous
 62
     7
370
    25
100
AcDbLine
 10
46.0499909925
 20
390.1055160985
 30
0.0
 11
46.0499909925
 21
419.0832902394
 31
0.0
  0
LINE
  5
2C2
330
1F
100
AcDbEntity
  8
0
  6
Continuous
 62
     7
370
    25
100
AcDbLine
 10
47.0419798799
 20
389.853957865
 30
0.0
 11
46.0499909925
 21
390.1055160985
 31
0.0
  0
ARC
  5
2C3
330
1F
100
AcDbEntity
  8
0
  6
Continuous
 62
     7
370
    25
100
AcDbCircle
 10
46.852600068
 20
390.9915557971
 30
0.0
 40
1.195511470289078
100
AcDbArc
 50
181.636994328
 51
227.8284974348
  0
LINE
  5
2C4
330
1F
100
AcDbEntity
  8
0
  6
Continuous
 62
     7
370
    25
100
AcDbLine
 10
100.3067892998
 20
381.4697166895
 30
0.0
 11
99.2320530604
 21
380.9879256138
 31
0.0
  0
LINE
  5
2C5
330
1F
100
AcDbEntity
  8
0
  6
Continuous
 62
     7
370
    25
100
AcDbLine
 10
46.750912409
 20
388.8301428571
 30
0.0
 11
48.1045022269
 21
389.4369405721
 31
0.0
  0
LINE
  5
2C6
330
1F
100
AcDbEntity
  8
0
  6
Continuous
 62
     7
370
    25
100
AcDbLine
 10
48.1045022269
 20
389.4369405721
 30
0.0
 11
48.829889822
 21
388.5194835173
 31
0.0
  0
LINE
  5
2C7
330
1F
100
AcDbEntity
  8
0
  6
Continuous
 62
     7
370
    25
100
AcDbLine
 10
48.1045022269
 20
389.4369405721
 30
0.0
 11
44.7270040503
 21
389.9416375758
 31
0.0
  0
ARC
  5
2C8
330
1F
100
AcDbEntity
  8
0
  6
Continuous
 62
     7
370
    25
100
AcDbCircle
 10
45.1628726823
 20
392.6421490927
 30
0.0
 40
2.735460457931762
100
AcDbArc
 50
235.8517922637
 51
260.8314027571
  0
LINE
  5
2C9
330
1F
100
AcDbEntity
  8
0
  6
Continuous
 62
     7
370
    25
100
AcDbLine
 10
74.9941111285
 20
427.8310763499
 30
0.0
 11
73.0378930481
 21
428.1233925414
 31
0.0
  0
LINE
  5
2CA
330
1F
100
AcDbEntity
  8
0
  6
Continuous
 62
     7
370
    25
100
AcDbLine
 10
73.0378935112
 20
426.9279585569
 30
0.0
 11
74.9941111883
 21
426.6356424257
 31
0.0
  0
LINE
  5
2CB
330
1F
100
AcDbEntity
  8
0
  6
Continuous
 62
     7
370
    25
100
AcDbLine
 10
77.7460349727
 20
440.0654031634
 30
0.0
 11
77.7460349727
 21
442.8746706021
 31
0.0
  0
LINE
  5
2CC
330
1F
100
AcDbEntity
  8
0
  6
Continuous
 62
     7
370
    25
100
AcDbLine
 10
77.7460349727
 20
442.8746706021
 30
0.0
 11
77.9960350137
 21
442.9867425545
 31
0.0
  0
LINE
  5
2CD
330
1F
100
AcDbEntity
  8
0
  6
Continuous
 62
     7
370
    25
100
AcDbLine
 10
77.9960350137
 20
440.0280426664
 30
0.0
 11
77.9960350137
 21
442.9867425545
 31
0.0
  0
LINE
  5
2CE
330
1F
100
AcDbEntity
  8
0
  6
Continuous
 62
     7
370
    25
100
AcDbLine
 10
73.0378930481
 20
366.304140321
 30
0.0
 11
74.9941111285
 21
366.0118241295
 31
0.0
  0
LINE
  5
2CF
330
1F
100
AcDbEntity
  8
0
  6
Continuous
 62
     7
370
    25
100
AcDbLine
 10
29.248612477
 20
447.3123364089
 30
0.0
 11
29.248612477
 21
448.6727157702
 31
0.0
  0
LINE
  5
2D0
330
1F
100
AcDbEntity
  8
0
  6
Continuous
 62
     7
370
    25
100
AcDbLine
 10
30.547649989
 20
449.9274896525
 30
0.0
 11
29.248612477
 21
448.6727157702
 31
0.0
  0
LINE
  5
2D1
330
1F
100
AcDbEntity
  8
0
  6
Continuous
 62
     7
370
    25
100
AcDbLine
 10
30.547649989
 20
449.9274896525
 30
0.0
 11
77.7460349727
 21
442.8746706021
 31
0.0
  0
LINE
  5
2D2
330
1F
100
AcDbEntity
  8
0
  6
Continuous
 62
     7
370
    25
100
AcDbLine
 10
32.7976498922
 20
450.9361370152
 30
0.0
 11
30.547649989
 21
449.9274896525
 31
0.0
  0
LINE
  5
2D3
330
1F
100
AcDbEntity
  8
0
  6
Continuous
 62
     7
370
    25
100
AcDbLine
 10
79.1274521665
 20
444.0131096236
 30
0.0
 11
32.7976498922
 21
450.9361370152
 31
0.0
  0
ARC
  5
2D4
330
1F
100
AcDbEntity
  8
0
  6
Continuous
 62
     7
370
    25
100
AcDbCircle
 10
76.2398355706
 20
446.0594845934
 30
0.0
 40
3.539206142867399
100
AcDbArc
 50
299.749756572
 51
324.6758418214
  0
ELLIPSE
  5
2D5
330
1F
100
AcDbEntity
  8
0
  6
Continuous
 62
     7
370
    25
100
AcDbEllipse
 10
61.3664032011
 20
450.9023102279
 30
0.0
 11
17.31077478881252
 21
-11.21039428608532
 31
0.0
210
0.0
220
0.0
230
1.0
 40
0.4400614378
 41
0.4108873330361742
 42
0.4407454887541509
  0
LINE
  5
2D6
330
1F
100
AcDbEntity
  8
0
  6
Continuous
 62
     7
370
    25
100
AcDbLine
 10
79.2068041813
 20
439.8471182353
 30
0.0
 11
79.2068041813
 21
443.6677210883
 31
0.0
  0
LINE
  5
2D7
330
1F
100
AcDbEntity
  8
0
  6
Continuous
 62
     7
370
    25
100
AcDbLine
 10
74.9941111883
 20
419.4877908592
 30
0.0
 11
73.0378935112
 21
419.7801069904
 31
0.0
  0
ARC
  5
2D8
330
1F
100
AcDbEntity
  8
0
  6
Continuous
 62
     7
370
    25
100
AcDbCircle
 10
62.6768175834
 20
356.9318922371
 30
0.0
 40
30.51318565597049
100
AcDbArc
 50
89.03336911640001
 51
93.3939474525
  0
ARC
  5
2D9
330
1F
100
AcDbEntity
  8
0
  6
Continuous
 62
     7
370
    25
100
AcDbCircle
 10
59.7466644483
 20
405.3709305706
 30
0.0
 40
18.01445397914446
100
AcDbArc
 50
262.0062453075
 51
273.5764415665
  0
LINE
  5
2DA
330
1F
100
AcDbEntity
  8
0
  6
Continuous
 62
     7
370
    25
100
AcDbLine
 10
57.241481528
 20
387.5315188453
 30
0.0
 11
53.5135249023
 21
388.0885845907
 31
0.0
  0
ARC
  5
2DB
330
1F
100
AcDbEntity
  8
0
  6
Continuous
 62
     7
370
    25
100
AcDbCircle
 10
54.4895872621
 20
395.7296692809
 30
0.0
 40
7.703172916015402
100
AcDbArc
 50
249.9239590429
 51
262.7205332309
  0
LINE
  5
2DC
330
1F
100
AcDbEntity
  8
0
  6
Continuous
 62
     7
370
    25
100
AcDbLine
 10
45.7690602404
 20
390.5010397171
 30
0.0
 11
44.8652736831
 21
390.6360918603
 31
0.0
  0
SPLINE
  5
2DD
330
1F
100
AcDbEntity
  8
0
  6
Continuous
 62
     7
370
    25
100
AcDbSpline
210
0.0
220
0.0
230
1.0
 70
     8
 71
     3
 72
    11
 73
     7
 74
     0
 42
0.000000001
 43
0.00000001
 40
0.0
 40
0.0
 40
0.0
 40
0.0
 40
0.0949610643010191
 40
0.5096645042262303
 40
0.9308432134737626
 40
0.9999999999999999
 40
0.9999999999999999
 40
0.9999999999999999
 40
0.9999999999999999
 10
65.29103185798824
 20
386.0597084578216
 30
0.0
 10
65.22309793953735
 20
386.1129262056084
 30
0.0
 10
64.85849053836428
 20
386.3985506058975
 30
0.0
 10
64.00072993208954
 20
386.5575766507251
 30
0.0
 10
63.16000830569279
 20
386.6095993340856
 30
0.0
 10
62.73334956199543
 20
386.4655713462259
 30
0.0
 10
62.67317372746632
 20
386.4452576775316
 30
0.0
  0
LINE
  5
2DE
330
1F
100
AcDbEntity
  8
0
  6
Continuous
 62
     7
370
    25
100
AcDbLine
 10
67.0106521335
 20
385.8027465363
 30
0.0
 11
67.0106521335
 21
386.8700543488
 31
0.0
  0
LINE
  5
2DF
330
1F
100
AcDbEntity
  8
0
  6
Continuous
 62
     7
370
    25
100
AcDbLine
 10
74.9941111883
 20
380.2712023608
 30
0.0
 11
73.0378935112
 21
380.563518492
 31
0.0
  0
ARC
  5
2E0
330
1F
100
AcDbEntity
  8
0
  6
Continuous
 62
     7
370
    25
100
AcDbCircle
 10
121.3342241419
 20
365.2271864868
 30
0.0
 40
3.611128781141276
100
AcDbArc
 50
321.0235638481001
 51
1.3024424574
  0
LINE
  5
2E1
330
1F
100
AcDbEntity
  8
0
  6
Continuous
 62
     7
370
    25
100
AcDbLine
 10
124.9444199565
 20
365.3092672689
 30
0.0
 11
124.9444199565
 21
429.0603714585
 31
0.0
  0
ARC
  5
2E2
330
1F
100
AcDbEntity
  8
0
  6
Continuous
 62
     7
370
    25
100
AcDbCircle
 10
120.249246735
 20
429.0278148886
 30
0.0
 40
4.695286094577836
100
AcDbArc
 50
0.3972854825
 51
34.0061673631
  0
LINE
  5
2E3
330
1F
100
AcDbEntity
  8
0
  6
Continuous
 62
     7
370
    25
100
AcDbLine
 10
80.344111005
 20
442.4864420612
 30
0.0
 11
80.344111005
 21
439.6771746225
 31
0.0
  0
LINE
  5
2E4
330
1F
100
AcDbEntity
  8
0
  6
Continuous
 62
     7
370
    25
100
AcDbLine
 10
127.5424949806
 20
435.4336231614
 30
0.0
 11
80.344111005
 21
442.4864420612
 31
0.0
  0
LINE
  5
2E5
330
1F
100
AcDbEntity
  8
0
  6
Continuous
 62
     7
370
    25
100
AcDbLine
 10
128.8415324926
 20
433.790620889
 30
0.0
 11
127.5424949806
 21
435.4336231614
 31
0.0
  0
LINE
  5
2E6
330
1F
100
AcDbEntity
  8
0
  6
Continuous
 62
     7
370
    25
100
AcDbLine
 10
128.8415324926
 20
433.790620889
 30
0.0
 11
128.8415324926
 21
359.4143326677
 31
0.0
  0
LINE
  5
2E7
330
1F
100
AcDbEntity
  8
0
  6
Continuous
 62
     7
370
    25
100
AcDbLine
 10
127.5424949806
 20
358.1595587855
 30
0.0
 11
128.8415324926
 21
359.4143326677
 31
0.0
  0
LINE
  5
2E8
330
1F
100
AcDbEntity
  8
0
  6
Continuous
 62
     7
370
    25
100
AcDbLine
 10
127.5424949806
 20
358.1595587855
 30
0.0
 11
124.1415326802
 21
358.6677620156
 31
0.0
  0
LINE
  5
2E9
330
1F
100
AcDbEntity
  8
0
  6
Continuous
 62
     7
370
    25
100
AcDbLine
 10
127.5424949806
 20
435.4336231614
 30
0.0
 11
129.7924948837
 21
436.4422705242
 31
0.0
  0
LINE
  5
2EA
330
1F
100
AcDbEntity
  8
0
  6
Continuous
 62
     7
370
    25
100
AcDbLine
 10
131.0915323958
 20
434.7992682517
 30
0.0
 11
129.7924948837
 21
436.4422705242
 31
0.0
  0
LINE
  5
2EB
330
1F
100
AcDbEntity
  8
0
  6
Continuous
 62
     7
370
    25
100
AcDbLine
 10
131.0915323958
 20
434.7992682517
 30
0.0
 11
128.8415324926
 21
433.790620889
 31
0.0
  0
LINE
  5
2EC
330
1F
100
AcDbEntity
  8
0
  6
Continuous
 62
     7
370
    25
100
AcDbLine
 10
131.0915323958
 20
360.4229800305
 30
0.0
 11
131.0915323958
 21
434.7992682517
 31
0.0
  0
LINE
  5
2ED
330
1F
100
AcDbEntity
  8
0
  6
Continuous
 62
     7
370
    25
100
AcDbLine
 10
128.8415324926
 20
359.4143326677
 30
0.0
 11
131.0915323958
 21
360.4229800305
 31
0.0
  0
LINE
  5
2EE
330
1F
100
AcDbEntity
  8
0
  6
Continuous
 62
     7
370
    25
100
AcDbLine
 10
81.0352652081
 20
443.7280265605
 30
0.0
 11
80.344111005
 21
442.4864420612
 31
0.0
  0
LINE
  5
2EF
330
1F
100
AcDbEntity
  8
0
  6
Continuous
 62
     7
370
    25
100
AcDbLine
 10
129.7924948837
 20
436.4422705242
 30
0.0
 11
81.0352652081
 21
443.7280265605
 31
0.0
  0
ARC
  5
2F0
330
1F
100
AcDbEntity
  8
0
  6
Continuous
 62
     7
370
    25
100
AcDbCircle
 10
94.9126969556
 20
455.551091502
 30
0.0
 40
44.3940581366818
100
AcDbArc
 50
274.313732714
 51
276.9367274957
  0
LINE
  5
2F1
330
1F
100
AcDbEntity
  8
0
  6
Continuous
 62
     7
370
    25
100
AcDbLine
 10
96.9141925838
 20
411.3793648972
 30
0.0
 11
98.2519172819
 21
411.2827957876
 31
0.0
  0
LINE
  5
2F2
330
1F
100
AcDbEntity
  8
0
  6
Continuous
 62
     7
370
    25
100
AcDbLine
 10
96.9141925838
 20
411.3793648972
 30
0.0
 11
71.1120602828
 21
415.2349580556
 31
0.0
  0
ARC
  5
2F3
330
1F
100
AcDbEntity
  8
0
  6
Continuous
 62
     7
370
    25
100
AcDbCircle
 10
94.9213000291
 20
426.4779777835
 30
0.0
 40
44.29834156216263
100
AcDbArc
 50
274.3119122757
 51
277.0354544038
  0
LINE
  5
2F4
330
1F
100
AcDbEntity
  8
0
  6
Continuous
 62
     7
370
    25
100
AcDbLine
 10
98.2519172819
 20
411.2827957876
 30
0.0
 11
98.2519172819
 21
382.3050216466
 31
0.0
  0
LINE
  5
2F5
330
1F
100
AcDbEntity
  8
0
  6
Continuous
 62
     7
370
    25
100
AcDbLine
 10
96.9141925838
 20
382.4015907562
 30
0.0
 11
96.9141925838
 21
411.3793648972
 31
0.0
  0
LINE
  5
2F6
330
1F
100
AcDbEntity
  8
0
  6
Continuous
 62
     7
370
    25
100
AcDbLine
 10
98.2519172819
 20
382.3050216466
 30
0.0
 11
96.9141925838
 21
382.4015907562
 31
0.0
  0
LINE
  5
2F7
330
1F
100
AcDbEntity
  8
0
  6
Continuous
 62
     7
370
    25
100
AcDbLine
 10
96.9141925838
 20
382.4015907562
 30
0.0
 11
71.1120602828
 21
386.2571839146
 31
0.0
  0
LINE
  5
2F8
330
1F
100
AcDbEntity
  8
0
  6
Continuous
 62
     7
370
    25
100
AcDbLine
 10
129.7924948837
 20
359.1682061483
 30
0.0
 11
131.0915323958
 21
360.4229800305
 31
0.0
  0
LINE
  5
2F9
330
1F
100
AcDbEntity
  8
0
  6
Continuous
 62
     7
370
    25
100
AcDbLine
 10
129.7924948837
 20
359.1682061483
 30
0.0
 11
127.5424949806
 21
358.1595587855
 31
0.0
  0
ARC
  5
2FA
330
1F
100
AcDbEntity
  8
0
  6
Continuous
 62
     8
370
    25
100
AcDbCircle
 10
57.3158749996
 20
439.0498475581
 30
0.0
 40
20.22199107153895
100
AcDbArc
 50
252.2048331631
 51
270.7976054298999
  0
ARC
  5
2FB
330
1F
100
AcDbEntity
  8
0
  6
Continuous
 62
     8
370
    25
100
AcDbCircle
 10
57.5495651896
 20
408.1914400058
 30
0.0
 40
20.11217163958819
100
AcDbArc
 50
249.727293045
 51
273.275145548
  0
LINE
  5
2FC
330
1F
100
AcDbEntity
  8
0
  6
Continuous
 62
     8
370
    25
100
AcDbLine
 10
42.8348883052
 20
390.4159128644
 30
0.0
 11
43.105571158
 21
390.5372566676
 31
0.0
  0
LINE
  5
2FD
330
1F
100
AcDbEntity
  8
0
  6
Continuous
 62
     8
370
    25
100
AcDbLine
 10
44.7270040503
 20
389.9416375758
 30
0.0
 11
44.0077694701
 21
389.6192135342
 31
0.0
  0
LINE
  5
2FE
330
1F
100
AcDbEntity
  8
0
  6
Continuous
 62
     8
370
    25
100
AcDbLine
 10
45.6575789549
 20
391.2628115773
 30
0.0
 11
44.8652741443
 21
390.9076310475
 31
0.0
  0
LINE
  5
2FF
330
1F
100
AcDbEntity
  8
0
  6
Continuous
 62
     8
370
    25
100
AcDbLine
 10
60.8704088502
 20
387.391560429
 30
0.0
 11
60.8704088502
 21
386.720278474
 31
0.0
  0
LINE
  5
300
330
1F
100
AcDbEntity
  8
0
  6
Continuous
 62
     8
370
    25
100
AcDbLine
 10
66.6766932575
 20
386.9199575716
 30
0.0
 11
66.6766932575
 21
385.8526497591
 31
0.0
  0
LINE
  5
301
330
1F
100
AcDbEntity
  8
0
  6
Continuous
 62
     8
370
    25
100
AcDbLine
 10
49.6210286154
 20
388.4012647501
 30
0.0
 11
49.6210286154
 21
389.4685725626
 31
0.0
  0
LINE
  5
302
330
1F
100
AcDbEntity
  8
0
  6
Continuous
 62
     8
370
    25
100
AcDbLine
 10
57.241481528
 20
387.262545474
 30
0.0
 11
57.241481528
 21
387.5315188453
 31
0.0
  0
LINE
  5
303
330
1F
100
AcDbEntity
  8
0
  6
Continuous
 62
     8
370
    25
100
AcDbLine
 10
53.5135249023
 20
388.0885845907
 30
0.0
 11
53.5135249023
 21
387.8196112193
 31
0.0
  0
LINE
  5
304
330
1F
100
AcDbEntity
  8
0
  6
Continuous
 62
     7
370
    25
100
AcDbLine
 10
434.2834808498
 20
454.9482460534
 30
0.0
 11
434.6834808498
 21
454.9482460534
 31
0.0
  0
LINE
  5
305
330
1F
100
AcDbEntity
  8
0
  6
Continuous
 62
     7
370
    25
100
AcDbLine
 10
434.6834808498
 20
460.9482460533
 30
0.0
 11
434.2834808498
 21
460.9482460533
 31
0.0
  0
LINE
  5
306
330
1F
100
AcDbEntity
  8
0
  6
Continuous
 62
     7
370
    25
100
AcDbLine
 10
434.2834808498
 20
404.9482460534
 30
0.0
 11
434.6834808498
 21
404.9482460534
 31
0.0
  0
LINE
  5
307
330
1F
100
AcDbEntity
  8
0
  6
Continuous
 62
     7
370
    25
100
AcDbLine
 10
434.6834808498
 20
410.9482460533
 30
0.0
 11
434.2834808498
 21
410.9482460533
 31
0.0
  0
LINE
  5
308
330
1F
100
AcDbEntity
  8
0
  6
Continuous
 62
     7
370
    25
100
AcDbLine
 10
426.6834808498
 20
402.4482460533
 30
0.0
 11
434.2834808498
 21
402.4482460533
 31
0.0
  0
LINE
  5
309
330
1F
100
AcDbEntity
  8
0
  6
Continuous
 62
     7
370
    25
100
AcDbLine
 10
434.2834808498
 20
463.4482460533
 30
0.0
 11
426.6834808498
 21
463.4482460533
 31
0.0
  0
LINE
  5
30A
330
1F
100
AcDbEntity
  8
0
  6
Continuous
 62
     7
370
    25
100
AcDbLine
 10
426.6834808498
 20
396.4482460533
 30
0.0
 11
425.9834808498
 21
396.4482460533
 31
0.0
  0
LINE
  5
30B
330
1F
100
AcDbEntity
  8
0
  6
Continuous
 62
     7
370
    25
100
AcDbLine
 10
426.6834808498
 20
399.9482460533
 30
0.0
 11
426.6834808498
 21
396.4482460533
 31
0.0
  0
LINE
  5
30C
330
1F
100
AcDbEntity
  8
0
  6
Continuous
 62
     7
370
    25
100
AcDbLine
 10
426.6834808498
 20
465.9482460533
 30
0.0
 11
426.6834808498
 21
399.9482460533
 31
0.0
  0
LINE
  5
30D
330
1F
100
AcDbEntity
  8
0
  6
Continuous
 62
     7
370
    25
100
AcDbLine
 10
425.9834808498
 20
469.4482460533
 30
0.0
 11
426.6834808498
 21
469.4482460533
 31
0.0
  0
LINE
  5
30E
330
1F
100
AcDbEntity
  8
0
  6
Continuous
 62
     7
370
    25
100
AcDbLine
 10
426.6834808498
 20
469.4482460533
 30
0.0
 11
426.6834808498
 21
465.9482460533
 31
0.0
  0
LINE
  5
30F
330
1F
100
AcDbEntity
  8
0
  6
Continuous
 62
     7
370
    25
100
AcDbLine
 10
435.3834808498
 20
394.5642298546
 30
0.0
 11
434.6834808498
 21
394.5642298546
 31
0.0
  0
LINE
  5
310
330
1F
100
AcDbEntity
  8
0
  6
Continuous
 62
     7
370
    25
100
AcDbLine
 10
434.6834808498
 20
394.5642298546
 30
0.0
 11
434.6834808498
 21
396.4482460533
 31
0.0
  0
LINE
  5
311
330
1F
100
AcDbEntity
  8
0
  6
Continuous
 62
     7
370
    25
100
AcDbLine
 10
435.3834808498
 20
396.4482460533
 30
0.0
 11
434.6834808498
 21
396.4482460533
 31
0.0
  0
LINE
  5
312
330
1F
100
AcDbEntity
  8
0
  6
Continuous
 62
     7
370
    25
100
AcDbLine
 10
434.6834808498
 20
396.4482460533
 30
0.0
 11
434.6834808498
 21
399.9482460533
 31
0.0
  0
LINE
  5
313
330
1F
100
AcDbEntity
  8
0
  6
Continuous
 62
     7
370
    25
100
AcDbLine
 10
434.6834808498
 20
465.9482460533
 30
0.0
 11
434.6834808498
 21
399.9482460533
 31
0.0
  0
LINE
  5
314
330
1F
100
AcDbEntity
  8
0
  6
Continuous
 62
     7
370
    25
100
AcDbLine
 10
434.6834808498
 20
469.4482460533
 30
0.0
 11
435.3834808498
 21
469.4482460533
 31
0.0
  0
LINE
  5
315
330
1F
100
AcDbEntity
  8
0
  6
Continuous
 62
     7
370
    25
100
AcDbLine
 10
434.6834808498
 20
465.9482460533
 30
0.0
 11
434.6834808498
 21
469.4482460533
 31
0.0
  0
CIRCLE
  5
316
330
1F
100
AcDbEntity
  8
0
  6
Continuous
 62
     7
370
    25
100
AcDbCircle
 10
430.7834808498
 20
443.9482460533
 30
0.0
 40
1.699999999999989
  0
CIRCLE
  5
317
330
1F
100
AcDbEntity
  8
0
  6
Continuous
 62
     7
370
    25
100
AcDbCircle
 10
430.7834808498
 20
421.9482460533
 30
0.0
 40
1.700000000000045
  0
LINE
  5
318
330
1F
100
AcDbEntity
  8
0
  6
Continuous
 62
     7
370
    25
100
AcDbLine
 10
434.6834808498
 20
417.9482460533
 30
0.0
 11
434.2834808498
 21
417.9482460533
 31
0.0
  0
LINE
  5
319
330
1F
100
AcDbEntity
  8
0
  6
Continuous
 62
     7
370
    25
100
AcDbLine
 10
434.6834808498
 20
447.9482460533
 30
0.0
 11
434.2834808498
 21
447.9482460533
 31
0.0
  0
LINE
  5
31A
330
1F
100
AcDbEntity
  8
0
  6
Continuous
 62
     7
370
    25
100
AcDbLine
 10
420.7834808498
 20
417.9482460533
 30
0.0
 11
420.7834808498
 21
447.9482460533
 31
0.0
  0
LINE
  5
31B
330
1F
100
AcDbEntity
  8
0
  6
Continuous
 62
     7
370
    25
100
AcDbLine
 10
420.9834808498
 20
417.9482460533
 30
0.0
 11
420.7834808498
 21
417.9482460533
 31
0.0
  0
LINE
  5
31C
330
1F
100
AcDbEntity
  8
0
  6
Continuous
 62
     7
370
    25
100
AcDbLine
 10
420.7834808498
 20
447.9482460533
 30
0.0
 11
420.9834808498
 21
447.9482460533
 31
0.0
  0
LINE
  5
31D
330
1F
100
AcDbEntity
  8
0
  6
Continuous
 62
     7
370
    25
100
AcDbLine
 10
434.2834808498
 20
449.3482460533
 30
0.0
 11
434.6834808498
 21
449.3482460533
 31
0.0
  0
LINE
  5
31E
330
1F
100
AcDbEntity
  8
0
  6
Continuous
 62
     7
370
    25
100
AcDbLine
 10
434.6834808498
 20
416.5482460533
 30
0.0
 11
434.2834808498
 21
416.5482460533
 31
0.0
  0
LINE
  5
31F
330
1F
100
AcDbEntity
  8
0
  6
Continuous
 62
     7
370
    25
100
AcDbLine
 10
440.8834808498
 20
394.6553528345
 30
0.0
 11
440.8834808498
 21
393.4482460533
 31
0.0
  0
LINE
  5
320
330
1F
100
AcDbEntity
  8
0
  6
Continuous
 62
     7
370
    25
100
AcDbLine
 10
440.8834808498
 20
393.4482460533
 30
0.0
 11
440.3834808498
 21
392.9482460533
 31
0.0
  0
LINE
  5
321
330
1F
100
AcDbEntity
  8
0
  6
Continuous
 62
     7
370
    25
100
AcDbLine
 10
440.3834808498
 20
392.9482460533
 30
0.0
 11
440.3834808498
 21
394.4482460533
 31
0.0
  0
LINE
  5
322
330
1F
100
AcDbEntity
  8
0
  6
Continuous
 62
     7
370
    25
100
AcDbLine
 10
440.8834808498
 20
394.6553528345
 30
0.0
 11
440.3834808498
 21
394.4482460533
 31
0.0
  0
LINE
  5
323
330
1F
100
AcDbEntity
  8
0
  6
Continuous
 62
     7
370
    25
100
AcDbLine
 10
435.3834808498
 20
392.9482460533
 30
0.0
 11
435.3834808498
 21
394.4482460533
 31
0.0
  0
LINE
  5
324
330
1F
100
AcDbEntity
  8
0
  6
Continuous
 62
     7
370
    25
100
AcDbLine
 10
435.3834808498
 20
394.4482460533
 30
0.0
 11
440.3834808498
 21
394.4482460533
 31
0.0
  0
LINE
  5
325
330
1F
100
AcDbEntity
  8
0
  6
Continuous
 62
     7
370
    25
100
AcDbLine
 10
440.3834808498
 20
392.9482460533
 30
0.0
 11
435.3834808498
 21
392.9482460533
 31
0.0
  0
LINE
  5
326
330
1F
100
AcDbEntity
  8
0
  6
Continuous
 62
     7
370
    25
100
AcDbLine
 10
440.8834808498
 20
471.2411392722
 30
0.0
 11
440.8834808498
 21
394.6553528345
 31
0.0
  0
LINE
  5
327
330
1F
100
AcDbEntity
  8
0
  6
Continuous
 62
     7
370
    25
100
AcDbLine
 10
440.3834808498
 20
394.4482460533
 30
0.0
 11
440.3834808498
 21
471.4482460533
 31
0.0
  0
LINE
  5
328
330
1F
100
AcDbEntity
  8
0
  6
Continuous
 62
     7
370
    25
100
AcDbLine
 10
440.8834808498
 20
471.2411392722
 30
0.0
 11
440.3834808498
 21
471.4482460533
 31
0.0
  0
LINE
  5
329
330
1F
100
AcDbEntity
  8
0
  6
Continuous
 62
     7
370
    25
100
AcDbLine
 10
435.3834808498
 20
394.4482460533
 30
0.0
 11
435.3834808498
 21
471.4482460533
 31
0.0
  0
LINE
  5
32A
330
1F
100
AcDbEntity
  8
0
  6
Continuous
 62
     7
370
    25
100
AcDbLine
 10
440.3834808498
 20
471.4482460533
 30
0.0
 11
435.3834808498
 21
471.4482460533
 31
0.0
  0
LINE
  5
32B
330
1F
100
AcDbEntity
  8
0
  6
Continuous
 62
     7
370
    25
100
AcDbLine
 10
435.3834808498
 20
472.9482460533
 30
0.0
 11
440.3834808498
 21
472.9482460533
 31
0.0
  0
LINE
  5
32C
330
1F
100
AcDbEntity
  8
0
  6
Continuous
 62
     7
370
    25
100
AcDbLine
 10
440.3834808498
 20
471.4482460533
 30
0.0
 11
440.3834808498
 21
472.9482460533
 31
0.0
  0
LINE
  5
32D
330
1F
100
AcDbEntity
  8
0
  6
Continuous
 62
     7
370
    25
100
AcDbLine
 10
435.3834808498
 20
471.4482460533
 30
0.0
 11
435.3834808498
 21
472.9482460533
 31
0.0
  0
LINE
  5
32E
330
1F
100
AcDbEntity
  8
0
  6
Continuous
 62
     7
370
    25
100
AcDbLine
 10
440.8834808498
 20
472.4482460533
 30
0.0
 11
440.8834808498
 21
471.2411392722
 31
0.0
  0
LINE
  5
32F
330
1F
100
AcDbEntity
  8
0
  6
Continuous
 62
     7
370
    25
100
AcDbLine
 10
440.8834808498
 20
472.4482460533
 30
0.0
 11
440.3834808498
 21
472.9482460533
 31
0.0
  0
LINE
  5
330
330
1F
100
AcDbEntity
  8
0
  6
Continuous
 62
     7
370
    25
100
AcDbLine
 10
440.9834808498
 20
447.9482460533
 30
0.0
 11
440.9834808498
 21
417.9482460533
 31
0.0
  0
LINE
  5
331
330
1F
100
AcDbEntity
  8
0
  6
Continuous
 62
     7
370
    25
100
AcDbLine
 10
440.9834808498
 20
417.9482460533
 30
0.0
 11
440.8834808498
 21
417.9482460533
 31
0.0
  0
LINE
  5
332
330
1F
100
AcDbEntity
  8
0
  6
Continuous
 62
     7
370
    25
100
AcDbLine
 10
440.8834808498
 20
447.9482460533
 30
0.0
 11
440.9834808498
 21
447.9482460533
 31
0.0
  0
LINE
  5
333
330
1F
100
AcDbEntity
  8
0
  6
Continuous
 62
     7
370
    25
100
AcDbLine
 10
425.9834808498
 20
394.4482460533
 30
0.0
 11
425.9834808498
 21
471.4482460533
 31
0.0
  0
LINE
  5
334
330
1F
100
AcDbEntity
  8
0
  6
Continuous
 62
     7
370
    25
100
AcDbLine
 10
421.4834808498
 20
394.4482460533
 30
0.0
 11
425.9834808498
 21
394.4482460533
 31
0.0
  0
LINE
  5
335
330
1F
100
AcDbEntity
  8
0
  6
Continuous
 62
     7
370
    25
100
AcDbLine
 10
421.4834808498
 20
471.4482460533
 30
0.0
 11
421.4834808498
 21
394.4482460533
 31
0.0
  0
LINE
  5
336
330
1F
100
AcDbEntity
  8
0
  6
Continuous
 62
     7
370
    25
100
AcDbLine
 10
425.9834808498
 20
471.4482460533
 30
0.0
 11
421.4834808498
 21
471.4482460533
 31
0.0
  0
LINE
  5
337
330
1F
100
AcDbEntity
  8
0
  6
Continuous
 62
     7
370
    25
100
AcDbLine
 10
420.9834808498
 20
393.4482460533
 30
0.0
 11
420.9834808498
 21
394.6553528345
 31
0.0
  0
LINE
  5
338
330
1F
100
AcDbEntity
  8
0
  6
Continuous
 62
     7
370
    25
100
AcDbLine
 10
420.9834808498
 20
394.6553528345
 30
0.0
 11
421.4834808498
 21
394.4482460533
 31
0.0
  0
LINE
  5
339
330
1F
100
AcDbEntity
  8
0
  6
Continuous
 62
     7
370
    25
100
AcDbLine
 10
421.4834808498
 20
394.4482460533
 30
0.0
 11
421.4834808498
 21
392.9482460533
 31
0.0
  0
LINE
  5
33A
330
1F
100
AcDbEntity
  8
0
  6
Continuous
 62
     7
370
    25
100
AcDbLine
 10
420.9834808498
 20
393.4482460533
 30
0.0
 11
421.4834808498
 21
392.9482460533
 31
0.0
  0
LINE
  5
33B
330
1F
100
AcDbEntity
  8
0
  6
Continuous
 62
     7
370
    25
100
AcDbLine
 10
425.9834808498
 20
392.9482460533
 30
0.0
 11
421.4834808498
 21
392.9482460533
 31
0.0
  0
LINE
  5
33C
330
1F
100
AcDbEntity
  8
0
  6
Continuous
 62
     7
370
    25
100
AcDbLine
 10
425.9834808498
 20
394.4482460533
 30
0.0
 11
425.9834808498
 21
392.9482460533
 31
0.0
  0
LINE
  5
33D
330
1F
100
AcDbEntity
  8
0
  6
Continuous
 62
     7
370
    25
100
AcDbLine
 10
420.9834808498
 20
394.6553528345
 30
0.0
 11
420.9834808498
 21
471.2411392722
 31
0.0
  0
LINE
  5
33E
330
1F
100
AcDbEntity
  8
0
  6
Continuous
 62
     7
370
    25
100
AcDbLine
 10
420.9834808498
 20
471.2411392722
 30
0.0
 11
421.4834808498
 21
471.4482460533
 31
0.0
  0
LINE
  5
33F
330
1F
100
AcDbEntity
  8
0
  6
Continuous
 62
     7
370
    25
100
AcDbLine
 10
421.4834808498
 20
472.9482460533
 30
0.0
 11
421.4834808498
 21
471.4482460533
 31
0.0
  0
LINE
  5
340
330
1F
100
AcDbEntity
  8
0
  6
Continuous
 62
     7
370
    25
100
AcDbLine
 10
421.4834808498
 20
472.9482460533
 30
0.0
 11
425.9834808498
 21
472.9482460533
 31
0.0
  0
LINE
  5
341
330
1F
100
AcDbEntity
  8
0
  6
Continuous
 62
     7
370
    25
100
AcDbLine
 10
425.9834808498
 20
472.9482460533
 30
0.0
 11
425.9834808498
 21
471.4482460533
 31
0.0
  0
LINE
  5
342
330
1F
100
AcDbEntity
  8
0
  6
Continuous
 62
     7
370
    25
100
AcDbLine
 10
420.9834808498
 20
471.2411392722
 30
0.0
 11
420.9834808498
 21
472.4482460533
 31
0.0
  0
LINE
  5
343
330
1F
100
AcDbEntity
  8
0
  6
Continuous
 62
     7
370
    25
100
AcDbLine
 10
420.9834808498
 20
472.4482460533
 30
0.0
 11
421.4834808498
 21
472.9482460533
 31
0.0
  0
LINE
  5
344
330
1F
100
AcDbEntity
  8
0
  6
Continuous
 62
     7
370
    25
100
AcDbLine
 10
434.2834808498
 20
407.9482460533
 30
0.0
 11
434.2834808498
 21
402.4482460533
 31
0.0
  0
LINE
  5
345
330
1F
100
AcDbEntity
  8
0
  6
Continuous
 62
     7
370
    25
100
AcDbLine
 10
434.2834808498
 20
457.9482460533
 30
0.0
 11
434.2834808498
 21
407.9482460533
 31
0.0
  0
CIRCLE
  5
346
330
1F
100
AcDbEntity
  8
0
  6
Continuous
 62
     7
370
    25
100
AcDbCircle
 10
430.7834808498
 20
443.9482460533
 30
0.0
 40
2.0
  0
CIRCLE
  5
347
330
1F
100
AcDbEntity
  8
0
  6
Continuous
 62
     7
370
    25
100
AcDbCircle
 10
430.7834808498
 20
421.9482460533
 30
0.0
 40
1.999999999999943
  0
LINE
  5
348
330
1F
100
AcDbEntity
  8
0
  6
Continuous
 62
     7
370
    25
100
AcDbLine
 10
434.2834808498
 20
463.4482460533
 30
0.0
 11
434.2834808498
 21
457.9482460533
 31
0.0
  0
LINE
  5
349
330
1F
100
AcDbEntity
  8
0
  6
Continuous
 62
     7
370
    25
100
AcDbLine
 10
434.2834808498
 20
416.3482460533
 30
0.0
 11
434.6744340533
 21
416.3482460533
 31
0.0
  0
LINE
  5
34A
330
1F
100
AcDbEntity
  8
0
  6
Continuous
 62
     7
370
    25
100
AcDbLine
 10
434.6744340533
 20
449.5482460533
 30
0.0
 11
434.2834808498
 21
449.5482460533
 31
0.0
  0
LINE
  5
34B
330
1F
100
AcDbEntity
  8
0
  6
Continuous
 62
     8
370
    25
100
AcDbLine
 10
425.9834808498
 20
399.9482460533
 30
0.0
 11
426.6834808498
 21
399.9482460533
 31
0.0
  0
LINE
  5
34C
330
1F
100
AcDbEntity
  8
0
  6
Continuous
 62
     8
370
    25
100
AcDbLine
 10
426.6834808498
 20
465.9482460533
 30
0.0
 11
425.9834808498
 21
465.9482460533
 31
0.0
  0
LINE
  5
34D
330
1F
100
AcDbEntity
  8
0
  6
Continuous
 62
     8
370
    25
100
AcDbLine
 10
434.6834808498
 20
399.9482460533
 30
0.0
 11
435.3834808498
 21
399.9482460533
 31
0.0
  0
LINE
  5
34E
330
1F
100
AcDbEntity
  8
0
  6
Continuous
 62
     8
370
    25
100
AcDbLine
 10
435.3834808498
 20
465.9482460533
 30
0.0
 11
434.6834808498
 21
465.9482460533
 31
0.0
  0
LINE
  5
34F
330
1F
100
AcDbEntity
  8
0
  6
Continuous
 62
     8
370
    25
100
AcDbLine
 10
434.6834808498
 20
448.8482460533
 30
0.0
 11
434.2834808498
 21
448.8482460533
 31
0.0
  0
LINE
  5
350
330
1F
100
AcDbEntity
  8
0
  6
Continuous
 62
     8
370
    25
100
AcDbLine
 10
434.2834808498
 20
417.0482460533
 30
0.0
 11
434.6834808498
 21
417.0482460533
 31
0.0
  0
LINE
  5
351
330
1F
100
AcDbEntity
  8
0
  6
Continuous
 62
     8
370
    25
100
AcDbLine
 10
426.6834808498
 20
407.9482460533
 30
0.0
 11
434.2834808498
 21
407.9482460533
 31
0.0
  0
LINE
  5
352
330
1F
100
AcDbEntity
  8
0
  6
Continuous
 62
     8
370
    25
100
AcDbLine
 10
426.6834808498
 20
457.9482460533
 30
0.0
 11
434.2834808498
 21
457.9482460533
 31
0.0
  0
LINE
  5
353
330
1F
100
AcDbEntity
  8
0
  6
Continuous
 62
     7
370
    25
100
AcDbLine
 10
331.7682922173
 20
543.7149684613
 30
0.0
 11
331.7682922173
 21
544.1149684613
 31
0.0
  0
LINE
  5
354
330
1F
100
AcDbEntity
  8
0
  6
Continuous
 62
     7
370
    25
100
AcDbLine
 10
325.7682922173
 20
544.1149684613
 30
0.0
 11
325.7682922173
 21
543.7149684613
 31
0.0
  0
LINE
  5
355
330
1F
100
AcDbEntity
  8
0
  6
Continuous
 62
     7
370
    25
100
AcDbLine
 10
258.7682922173
 20
543.7149684612
 30
0.0
 11
258.7682922173
 21
544.1149684613
 31
0.0
  0
LINE
  5
356
330
1F
100
AcDbEntity
  8
0
  6
Continuous
 62
     7
370
    25
100
AcDbLine
 10
252.7682922173
 20
544.1149684613
 30
0.0
 11
252.7682922173
 21
543.7149684612
 31
0.0
  0
LINE
  5
357
330
1F
100
AcDbEntity
  8
0
  6
Continuous
 62
     7
370
    25
100
AcDbLine
 10
283.5682922173
 20
544.4149684612
 30
0.0
 11
283.5682922173
 21
544.8149684613
 31
0.0
  0
LINE
  5
358
330
1F
100
AcDbEntity
  8
0
  6
Continuous
 62
     7
370
    25
100
AcDbLine
 10
278.0682922173
 20
540.4149684612
 30
0.0
 11
278.0682922173
 21
539.4149684612
 31
0.0
  0
LINE
  5
359
330
1F
100
AcDbEntity
  8
0
  6
Continuous
 62
     7
370
    25
100
AcDbLine
 10
282.0682922173
 20
539.4149684612
 30
0.0
 11
282.0682922173
 21
540.4149684612
 31
0.0
  0
LINE
  5
35A
330
1F
100
AcDbEntity
  8
0
  6
Continuous
 62
     7
370
    25
100
AcDbLine
 10
282.0278840115
 20
544.4149684612
 30
0.0
 11
281.4682922173
 21
544.4149684612
 31
0.0
  0
LINE
  5
35B
330
1F
100
AcDbEntity
  8
0
  6
Continuous
 62
     7
370
    25
100
AcDbLine
 10
281.4682922173
 20
536.1149684613
 30
0.0
 11
281.4682922173
 21
535.4149684612
 31
0.0
  0
LINE
  5
35C
330
1F
100
AcDbEntity
  8
0
  6
Continuous
 62
     7
370
    25
100
AcDbLine
 10
277.9682922173
 20
536.1149684613
 30
0.0
 11
281.4682922173
 21
536.1149684613
 31
0.0
  0
LINE
  5
35D
330
1F
100
AcDbEntity
  8
0
  6
Continuous
 62
     7
370
    25
100
AcDbLine
 10
243.2682922173
 20
536.1149684613
 30
0.0
 11
277.9682922173
 21
536.1149684613
 31
0.0
  0
LINE
  5
35E
330
1F
100
AcDbEntity
  8
0
  6
Continuous
 62
     7
370
    25
100
AcDbLine
 10
239.7682922173
 20
535.4149684612
 30
0.0
 11
239.7682922173
 21
536.1149684613
 31
0.0
  0
LINE
  5
35F
330
1F
100
AcDbEntity
  8
0
  6
Continuous
 62
     7
370
    25
100
AcDbLine
 10
239.7682922173
 20
536.1149684613
 30
0.0
 11
243.2682922173
 21
536.1149684613
 31
0.0
  0
LINE
  5
360
330
1F
100
AcDbEntity
  8
0
  6
Continuous
 62
     7
370
    25
100
AcDbLine
 10
305.3560351343
 20
544.1149684613
 30
0.0
 11
340.0560351343
 21
544.1149684613
 31
0.0
  0
LINE
  5
361
330
1F
100
AcDbEntity
  8
0
  6
Continuous
 62
     7
370
    25
100
AcDbLine
 10
301.8560351343
 20
544.1149684613
 30
0.0
 11
301.8560351343
 21
544.8149684613
 31
0.0
  0
LINE
  5
362
330
1F
100
AcDbEntity
  8
0
  6
Continuous
 62
     7
370
    25
100
AcDbLine
 10
305.3560351343
 20
544.1149684613
 30
0.0
 11
301.8560351343
 21
544.1149684613
 31
0.0
  0
LINE
  5
363
330
1F
100
AcDbEntity
  8
0
  6
Continuous
 62
     7
370
    25
100
AcDbLine
 10
343.5560351343
 20
544.8149684613
 30
0.0
 11
343.5560351343
 21
544.1149684613
 31
0.0
  0
LINE
  5
364
330
1F
100
AcDbEntity
  8
0
  6
Continuous
 62
     7
370
    25
100
AcDbLine
 10
343.5560351343
 20
544.1149684613
 30
0.0
 11
340.0560351343
 21
544.1149684613
 31
0.0
  0
LINE
  5
365
330
1F
100
AcDbEntity
  8
0
  6
Continuous
 62
     7
370
    25
100
AcDbLine
 10
306.5682922173
 20
536.1149684613
 30
0.0
 11
341.2682922173
 21
536.1149684613
 31
0.0
  0
LINE
  5
366
330
1F
100
AcDbEntity
  8
0
  6
Continuous
 62
     7
370
    25
100
AcDbLine
 10
303.0682922173
 20
535.4149684613
 30
0.0
 11
303.0682922173
 21
536.1149684613
 31
0.0
  0
LINE
  5
367
330
1F
100
AcDbEntity
  8
0
  6
Continuous
 62
     7
370
    25
100
AcDbLine
 10
303.0682922173
 20
536.1149684613
 30
0.0
 11
306.5682922173
 21
536.1149684613
 31
0.0
  0
LINE
  5
368
330
1F
100
AcDbEntity
  8
0
  6
Continuous
 62
     7
370
    25
100
AcDbLine
 10
344.7682922173
 20
536.1149684613
 30
0.0
 11
344.7682922173
 21
535.4149684613
 31
0.0
  0
LINE
  5
369
330
1F
100
AcDbEntity
  8
0
  6
Continuous
 62
     7
370
    25
100
AcDbLine
 10
341.2682922173
 20
536.1149684613
 30
0.0
 11
344.7682922173
 21
536.1149684613
 31
0.0
  0
LINE
  5
36A
330
1F
100
AcDbEntity
  8
0
  6
Continuous
 62
     7
370
    25
100
AcDbLine
 10
281.4682922173
 20
544.8149684613
 30
0.0
 11
281.4682922173
 21
544.1149684613
 31
0.0
  0
LINE
  5
36B
330
1F
100
AcDbEntity
  8
0
  6
Continuous
 62
     7
370
    25
100
AcDbLine
 10
281.4682922173
 20
544.1149684613
 30
0.0
 11
277.9682922173
 21
544.1149684613
 31
0.0
  0
LINE
  5
36C
330
1F
100
AcDbEntity
  8
0
  6
Continuous
 62
     7
370
    25
100
AcDbLine
 10
243.2682922173
 20
544.1149684613
 30
0.0
 11
277.9682922173
 21
544.1149684613
 31
0.0
  0
LINE
  5
36D
330
1F
100
AcDbEntity
  8
0
  6
Continuous
 62
     7
370
    25
100
AcDbLine
 10
239.7682922173
 20
544.1149684613
 30
0.0
 11
239.7682922173
 21
544.8149684613
 31
0.0
  0
LINE
  5
36E
330
1F
100
AcDbEntity
  8
0
  6
Continuous
 62
     7
370
    25
100
AcDbLine
 10
243.2682922173
 20
544.1149684613
 30
0.0
 11
239.7682922173
 21
544.1149684613
 31
0.0
  0
LINE
  5
36F
330
1F
100
AcDbEntity
  8
0
  6
Continuous
 62
     7
370
    25
100
AcDbLine
 10
259.5682922173
 20
530.2149684612
 30
0.0
 11
260.7682922173
 21
530.2149684612
 31
0.0
  0
ARC
  5
370
330
1F
100
AcDbEntity
  8
0
  6
Continuous
 62
     7
370
    25
100
AcDbCircle
 10
259.5682922173
 20
530.7149684612
 30
0.0
 40
0.4999999999999545
100
AcDbArc
 50
216.8698976458
 51
270.0
  0
LINE
  5
371
330
1F
100
AcDbEntity
  8
0
  6
Continuous
 62
     7
370
    25
100
AcDbLine
 10
260.7682922173
 20
530.2149684612
 30
0.0
 11
260.7682922173
 21
530.4149684612
 31
0.0
  0
ARC
  5
372
330
1F
100
AcDbEntity
  8
0
  6
Continuous
 62
     7
370
    25
100
AcDbCircle
 10
271.0682922173
 20
540.4149684613
 30
0.0
 40
5.299999999960335
100
AcDbArc
 50
349.1242835051
 51
359.9999999998
  0
LINE
  5
373
330
1F
100
AcDbEntity
  8
0
  6
Continuous
 62
     7
370
    25
100
AcDbLine
 10
263.240258946
 20
543.7273535693
 30
0.0
 11
263.4158416294
 21
544.1149684613
 31
0.0
  0
ARC
  5
374
330
1F
100
AcDbEntity
  8
0
  6
Continuous
 62
     7
370
    25
100
AcDbCircle
 10
271.0682922173
 20
540.4149684612
 30
0.0
 40
4.49999999999998
100
AcDbArc
 50
287.1462099995
 51
55.307869415
  0
ARC
  5
375
330
1F
100
AcDbEntity
  8
0
  6
Continuous
 62
     7
370
    25
100
AcDbCircle
 10
271.0682922173
 20
540.4149684612
 30
0.0
 40
4.49999999999998
100
AcDbArc
 50
124.692130585
 51
252.8537900005
  0
CIRCLE
  5
376
330
1F
100
AcDbEntity
  8
0
  6
Continuous
 62
     7
370
    25
100
AcDbCircle
 10
274.0663433673
 20
540.4149684612
 30
0.0
 40
1.385640646055037
  0
LINE
  5
377
330
1F
100
AcDbEntity
  8
0
  6
Continuous
 62
     7
370
    25
100
AcDbLine
 10
275.5774637455
 20
542.5753786375
 30
0.0
 11
275.2457831562
 21
542.7789839974
 31
0.0
  0
ARC
  5
378
330
1F
100
AcDbEntity
  8
0
  6
Continuous
 62
     7
370
    25
100
AcDbCircle
 10
271.0682922173
 20
540.4149684612
 30
0.0
 40
4.800000000014236
100
AcDbArc
 50
22.1637796949
 51
29.5052452708
  0
LINE
  5
379
330
1F
100
AcDbEntity
  8
0
  6
Continuous
 62
     7
370
    25
100
AcDbLine
 10
275.5136166508
 20
542.2257944278
 30
0.0
 11
275.8013650073
 21
542.0268065315
 31
0.0
  0
LINE
  5
37A
330
1F
100
AcDbEntity
  8
0
  6
Continuous
 62
     7
370
    25
100
AcDbLine
 10
275.8448431868
 20
541.8929944542
 30
0.0
 11
275.7290120271
 21
541.5628756241
 31
0.0
  0
ARC
  5
37B
330
1F
100
AcDbEntity
  8
0
  6
Continuous
 62
     7
370
    25
100
AcDbCircle
 10
271.0682922173
 20
540.4149684612
 30
0.0
 40
4.800000000014217
100
AcDbArc
 50
6.494754729
 51
13.8362203054
  0
LINE
  5
37C
330
1F
100
AcDbEntity
  8
0
  6
Continuous
 62
     7
370
    25
100
AcDbLine
 10
275.8374868491
 20
540.957907283
 30
0.0
 11
275.9861458546
 21
541.3175844382
 31
0.0
  0
LINE
  5
37D
330
1F
100
AcDbEntity
  8
0
  6
Continuous
 62
     7
370
    25
100
AcDbLine
 10
276.0663433673
 20
540.5545560739
 30
0.0
 11
275.8461518323
 21
540.8754654752
 31
0.0
  0
ARC
  5
37E
330
1F
100
AcDbEntity
  8
0
  6
Continuous
 62
     7
370
    25
100
AcDbCircle
 10
271.0682922173
 20
540.4149684612
 30
0.0
 40
4.800000000011091
100
AcDbArc
 50
358.1637796947001
 51
5.5052452709
  0
LINE
  5
37F
330
1F
100
AcDbEntity
  8
0
  6
Continuous
 62
     7
370
    25
100
AcDbLine
 10
275.8658274361
 20
540.2611639601
 30
0.0
 11
276.0477629712
 21
539.9623416708
 31
0.0
  0
ARC
  5
380
330
1F
100
AcDbEntity
  8
0
  6
Continuous
 62
     7
370
    25
100
AcDbCircle
 10
271.0682922173
 20
540.4149684612
 30
0.0
 40
5.000000000000043
100
AcDbArc
 50
353.1938312681
 51
354.8061687319
  0
LINE
  5
381
330
1F
100
AcDbEntity
  8
0
  6
Continuous
 62
     7
370
    25
100
AcDbLine
 10
276.0330559894
 20
539.8224140866
 30
0.0
 11
275.7929675349
 21
539.5679483059
 31
0.0
  0
ARC
  5
382
330
1F
100
AcDbEntity
  8
0
  6
Continuous
 62
     7
370
    25
100
AcDbCircle
 10
271.0682922173
 20
540.4149684612
 30
0.0
 40
4.800000000011591
100
AcDbArc
 50
342.4947547291
 51
349.8362203051
  0
LINE
  5
383
330
1F
100
AcDbEntity
  8
0
  6
Continuous
 62
     7
370
    25
100
AcDbLine
 10
275.6460014235
 20
538.9711615409
 30
0.0
 11
275.9281020615
 21
539.2392779074
 31
0.0
  0
LINE
  5
384
330
1F
100
AcDbEntity
  8
0
  6
Continuous
 62
     7
370
    25
100
AcDbLine
 10
275.6910145395
 20
538.5095975441
 30
0.0
 11
275.6203851754
 21
538.8923228357
 31
0.0
  0
ARC
  5
385
330
1F
100
AcDbEntity
  8
0
  6
Continuous
 62
     7
370
    25
100
AcDbCircle
 10
271.0682922173
 20
540.4149684612
 30
0.0
 40
4.800000000000015
100
AcDbArc
 50
334.1637796949
 51
341.5052452711
  0
LINE
  5
386
330
1F
100
AcDbEntity
  8
0
  6
Continuous
 62
     7
370
    25
100
AcDbLine
 10
275.3885007978
 20
538.3231276879
 30
0.0
 11
275.4331652046
 21
537.9761400941
 31
0.0
  0
LINE
  5
387
330
1F
100
AcDbEntity
  8
0
  6
Continuous
 62
     7
370
    25
100
AcDbLine
 10
275.3628160324
 20
537.8542917535
 30
0.0
 11
275.0399837579
 21
537.7194784675
 31
0.0
  0
ARC
  5
388
330
1F
100
AcDbEntity
  8
0
  6
Continuous
 62
     7
370
    25
100
AcDbCircle
 10
271.0682922173
 20
540.4149684612
 30
0.0
 40
4.80000000001418
100
AcDbArc
 50
318.4947547291999
 51
325.8362203054
  0
LINE
  5
389
330
1F
100
AcDbEntity
  8
0
  6
Continuous
 62
     7
370
    25
100
AcDbLine
 10
274.662988489
 20
537.2340631319
 30
0.0
 11
275.0297529963
 21
537.3642589542
 31
0.0
  0
LINE
  5
38A
330
1F
100
AcDbEntity
  8
0
  6
Continuous
 62
     7
370
    25
100
AcDbLine
 10
274.516375026
 20
536.7940949556
 30
0.0
 11
274.6075202916
 21
537.1724594577
 31
0.0
  0
ARC
  5
38B
330
1F
100
AcDbEntity
  8
0
  6
Continuous
 62
     7
370
    25
100
AcDbCircle
 10
271.0682922173
 20
540.4149684612
 30
0.0
 40
4.799999999999947
100
AcDbArc
 50
310.1637796949
 51
317.5052452711
  0
LINE
  5
38C
330
1F
100
AcDbEntity
  8
0
  6
Continuous
 62
     7
370
    25
100
AcDbLine
 10
274.1641708481
 20
536.7467896892
 30
0.0
 11
274.063841245
 21
536.4116340981
 31
0.0
  0
LINE
  5
38D
330
1F
100
AcDbEntity
  8
0
  6
Continuous
 62
     7
370
    25
100
AcDbLine
 10
273.9500138932
 20
536.3289336862
 30
0.0
 11
273.6002584319
 21
536.3370833368
 31
0.0
  0
ARC
  5
38E
330
1F
100
AcDbEntity
  8
0
  6
Continuous
 62
     7
370
    25
100
AcDbCircle
 10
271.0682922173
 20
540.4149684612
 30
0.0
 40
4.800000000014234
100
AcDbArc
 50
296.3843297498
 51
301.8362203054
  0
ARC
  5
38F
330
1F
100
AcDbEntity
  8
0
  6
Continuous
 62
     7
370
    25
100
AcDbCircle
 10
271.0682922173
 20
540.4149684612
 30
0.0
 40
4.799999999999962
100
AcDbArc
 50
238.1637796949
 51
243.6156702502
  0
LINE
  5
390
330
1F
100
AcDbEntity
  8
0
  6
Continuous
 62
     7
370
    25
100
AcDbLine
 10
268.5363260027
 20
536.3370833368
 30
0.0
 11
268.1865705414
 21
536.3289336862
 31
0.0
  0
LINE
  5
391
330
1F
100
AcDbEntity
  8
0
  6
Continuous
 62
     7
370
    25
100
AcDbLine
 10
268.0727431896
 20
536.4116340981
 30
0.0
 11
267.9724135865
 21
536.7467896892
 31
0.0
  0
ARC
  5
392
330
1F
100
AcDbEntity
  8
0
  6
Continuous
 62
     7
370
    25
100
AcDbCircle
 10
271.0682922173
 20
540.4149684612
 30
0.0
 40
4.800000000014786
100
AcDbArc
 50
222.4947547292
 51
229.8362203054
  0
LINE
  5
393
330
1F
100
AcDbEntity
  8
0
  6
Continuous
 62
     7
370
    25
100
AcDbLine
 10
267.529064143
 20
537.1724594577
 30
0.0
 11
267.6202094086
 21
536.7940949556
 31
0.0
  0
LINE
  5
394
330
1F
100
AcDbEntity
  8
0
  6
Continuous
 62
     7
370
    25
100
AcDbLine
 10
267.1068314383
 20
537.3642589542
 30
0.0
 11
267.4735959456
 21
537.2340631319
 31
0.0
  0
ARC
  5
395
330
1F
100
AcDbEntity
  8
0
  6
Continuous
 62
     7
370
    25
100
AcDbCircle
 10
271.0682922173
 20
540.4149684612
 30
0.0
 40
4.800000000000023
100
AcDbArc
 50
214.1637796949
 51
221.5052452711
  0
LINE
  5
396
330
1F
100
AcDbEntity
  8
0
  6
Continuous
 62
     7
370
    25
100
AcDbLine
 10
267.0966006767
 20
537.7194784675
 30
0.0
 11
266.7737684022
 21
537.8542917535
 31
0.0
  0
LINE
  5
397
330
1F
100
AcDbEntity
  8
0
  6
Continuous
 62
     7
370
    25
100
AcDbLine
 10
266.70341923
 20
537.9761400941
 30
0.0
 11
266.7480836368
 21
538.3231276879
 31
0.0
  0
ARC
  5
398
330
1F
100
AcDbEntity
  8
0
  6
Continuous
 62
     7
370
    25
100
AcDbCircle
 10
271.0682922173
 20
540.4149684612
 30
0.0
 40
4.80000000001418
100
AcDbArc
 50
198.4947547292
 51
205.8362203054
  0
LINE
  5
399
330
1F
100
AcDbEntity
  8
0
  6
Continuous
 62
     7
370
    25
100
AcDbLine
 10
266.5161992592
 20
538.8923228357
 30
0.0
 11
266.4455698951
 21
538.5095975441
 31
0.0
  0
LINE
  5
39A
330
1F
100
AcDbEntity
  8
0
  6
Continuous
 62
     7
370
    25
100
AcDbLine
 10
266.2084823731
 20
539.2392779074
 30
0.0
 11
266.4905830111
 21
538.9711615409
 31
0.0
  0
ARC
  5
39B
330
1F
100
AcDbEntity
  8
0
  6
Continuous
 62
     7
370
    25
100
AcDbCircle
 10
271.0682922173
 20
540.4149684612
 30
0.0
 40
4.800000000008431
100
AcDbArc
 50
190.163779695
 51
197.5052452709
  0
LINE
  5
39C
330
1F
100
AcDbEntity
  8
0
  6
Continuous
 62
     7
370
    25
100
AcDbLine
 10
266.3436168997
 20
539.5679483059
 30
0.0
 11
266.1035284452
 21
539.8224140866
 31
0.0
  0
LINE
  5
39D
330
1F
100
AcDbEntity
  8
0
  6
Continuous
 62
     7
370
    25
100
AcDbLine
 10
266.0888214634
 20
539.9623416708
 30
0.0
 11
266.2707569985
 21
540.2611639601
 31
0.0
  0
ARC
  5
39E
330
1F
100
AcDbEntity
  8
0
  6
Continuous
 62
     7
370
    25
100
AcDbCircle
 10
271.0682922173
 20
540.4149684612
 30
0.0
 40
4.800000000010169
100
AcDbArc
 50
174.4947547291
 51
181.8362203052
  0
LINE
  5
39F
330
1F
100
AcDbEntity
  8
0
  6
Continuous
 62
     7
370
    25
100
AcDbLine
 10
266.2904326023
 20
540.8754654752
 30
0.0
 11
266.0702410673
 21
540.5545560739
 31
0.0
  0
LINE
  5
3A0
330
1F
100
AcDbEntity
  8
0
  6
Continuous
 62
     7
370
    25
100
AcDbLine
 10
266.15043858
 20
541.3175844382
 30
0.0
 11
266.2990975855
 21
540.9579072829
 31
0.0
  0
ARC
  5
3A1
330
1F
100
AcDbEntity
  8
0
  6
Continuous
 62
     7
370
    25
100
AcDbCircle
 10
271.0682922173
 20
540.4149684612
 30
0.0
 40
4.800000000000034
100
AcDbArc
 50
166.1637796949
 51
173.5052452711
  0
LINE
  5
3A2
330
1F
100
AcDbEntity
  8
0
  6
Continuous
 62
     7
370
    25
100
AcDbLine
 10
266.4075724075
 20
541.5628756241
 30
0.0
 11
266.2917412478
 21
541.8929944542
 31
0.0
  0
LINE
  5
3A3
330
1F
100
AcDbEntity
  8
0
  6
Continuous
 62
     7
370
    25
100
AcDbLine
 10
266.3352194273
 20
542.0268065315
 30
0.0
 11
266.6229677838
 21
542.2257944278
 31
0.0
  0
ARC
  5
3A4
330
1F
100
AcDbEntity
  8
0
  6
Continuous
 62
     7
370
    25
100
AcDbCircle
 10
271.0682922173
 20
540.4149684612
 30
0.0
 40
4.800000000014605
100
AcDbArc
 50
150.4947547292
 51
157.8362203054
  0
LINE
  5
3A5
330
1F
100
AcDbEntity
  8
0
  6
Continuous
 62
     7
370
    25
100
AcDbLine
 10
266.8908012784
 20
542.7789839974
 30
0.0
 11
266.5591206891
 21
542.5753786375
 31
0.0
  0
LINE
  5
3A6
330
1F
100
AcDbEntity
  8
0
  6
Continuous
 62
     7
370
    25
100
AcDbLine
 10
266.942736358
 20
543.2398204666
 30
0.0
 11
266.9322492385
 21
542.8507739703
 31
0.0
  0
ARC
  5
3A7
330
1F
100
AcDbEntity
  8
0
  6
Continuous
 62
     7
370
    25
100
AcDbCircle
 10
271.0682922173
 20
540.4149684612
 30
0.0
 40
4.800000000000036
100
AcDbArc
 50
142.1637796949
 51
149.5052452711
  0
LINE
  5
3A8
330
1F
100
AcDbEntity
  8
0
  6
Continuous
 62
     7
370
    25
100
AcDbLine
 10
267.2774087117
 20
543.3593193654
 30
0.0
 11
267.3058631067
 21
543.7080107002
 31
0.0
  0
LINE
  5
3A9
330
1F
100
AcDbEntity
  8
0
  6
Continuous
 62
     7
370
    25
100
AcDbLine
 10
267.4000086752
 20
543.8125699468
 30
0.0
 11
267.7438155481
 21
543.877316635
 31
0.0
  0
ARC
  5
3AA
330
1F
100
AcDbEntity
  8
0
  6
Continuous
 62
     7
370
    25
100
AcDbCircle
 10
271.0682922173
 20
540.4149684612
 30
0.0
 40
4.80000000001424
100
AcDbArc
 50
129.8550277058
 51
133.8362203054
  0
ARC
  5
3AB
330
1F
100
AcDbEntity
  8
0
  6
Continuous
 62
     7
370
    25
100
AcDbCircle
 10
271.0682922173
 20
540.4149684612
 30
0.0
 40
4.800000000000039
100
AcDbArc
 50
46.1637796949
 51
50.14497229420001
  0
LINE
  5
3AC
330
1F
100
AcDbEntity
  8
0
  6
Continuous
 62
     7
370
    25
100
AcDbLine
 10
274.3927688864
 20
543.877316635
 30
0.0
 11
274.7365757594
 21
543.8125699468
 31
0.0
  0
LINE
  5
3AD
330
1F
100
AcDbEntity
  8
0
  6
Continuous
 62
     7
370
    25
100
AcDbLine
 10
274.8307213279
 20
543.7080107002
 30
0.0
 11
274.8591757229
 21
543.3593193654
 31
0.0
  0
ARC
  5
3AE
330
1F
100
AcDbEntity
  8
0
  6
Continuous
 62
     7
370
    25
100
AcDbCircle
 10
271.0682922173
 20
540.4149684612
 30
0.0
 40
4.800000000000036
100
AcDbArc
 50
30.4947547289
 51
37.8362203051
  0
LINE
  5
3AF
330
1F
100
AcDbEntity
  8
0
  6
Continuous
 62
     7
370
    25
100
AcDbLine
 10
275.204335196
 20
542.8507739703
 30
0.0
 11
275.1938480766
 21
543.2398204666
 31
0.0
  0
LINE
  5
3B0
330
1F
100
AcDbEntity
  8
0
  6
Continuous
 62
     7
370
    25
100
AcDbLine
 10
267.1674124026
 20
543.5427690737
 30
0.0
 11
267.283825275
 21
543.4379504527
 31
0.0
  0
LINE
  5
3B1
330
1F
100
AcDbEntity
  8
0
  6
Continuous
 62
     7
370
    25
100
AcDbLine
 10
274.969172032
 20
543.5427690737
 30
0.0
 11
274.8527591596
 21
543.4379504527
 31
0.0
  0
LINE
  5
3B2
330
1F
100
AcDbEntity
  8
0
  6
Continuous
 62
     7
370
    25
100
AcDbLine
 10
274.2336221349
 20
536.5444792786
 30
0.0
 11
274.1415461798
 21
536.6712109585
 31
0.0
  0
LINE
  5
3B3
330
1F
100
AcDbEntity
  8
0
  6
Continuous
 62
     7
370
    25
100
AcDbLine
 10
266.8881389074
 20
537.6715548385
 30
0.0
 11
267.0238008959
 21
537.7498793241
 31
0.0
  0
LINE
  5
3B4
330
1F
100
AcDbEntity
  8
0
  6
Continuous
 62
     7
370
    25
100
AcDbLine
 10
266.2324700605
 20
541.6857257423
 30
0.0
 11
266.3814520853
 21
541.6373185481
 31
0.0
  0
LINE
  5
3B5
330
1F
100
AcDbEntity
  8
0
  6
Continuous
 62
     7
370
    25
100
AcDbLine
 10
267.5498730514
 20
543.9675346567
 30
0.0
 11
267.6662859238
 21
543.8627160356
 31
0.0
  0
LINE
  5
3B6
330
1F
100
AcDbEntity
  8
0
  6
Continuous
 62
     7
370
    25
100
AcDbLine
 10
268.3653789962
 20
536.2085138829
 30
0.0
 11
268.4574549513
 21
536.3352455628
 31
0.0
  0
LINE
  5
3B7
330
1F
100
AcDbEntity
  8
0
  6
Continuous
 62
     7
370
    25
100
AcDbLine
 10
275.5342347626
 20
538.1665563145
 30
0.0
 11
275.3985727741
 21
538.2448808001
 31
0.0
  0
LINE
  5
3B8
330
1F
100
AcDbEntity
  8
0
  6
Continuous
 62
     7
370
    25
100
AcDbLine
 10
275.9041143741
 20
541.6857257423
 30
0.0
 11
275.7551323493
 21
541.6373185481
 31
0.0
  0
LINE
  5
3B9
330
1F
100
AcDbEntity
  8
0
  6
Continuous
 62
     7
370
    25
100
AcDbLine
 10
266.1336853013
 20
539.6089569326
 30
0.0
 11
266.289476133
 21
539.6253312088
 31
0.0
  0
LINE
  5
3BA
330
1F
100
AcDbEntity
  8
0
  6
Continuous
 62
     7
370
    25
100
AcDbLine
 10
273.7712054383
 20
536.2085138829
 30
0.0
 11
273.6791294833
 21
536.3352455628
 31
0.0
  0
LINE
  5
3BB
330
1F
100
AcDbEntity
  8
0
  6
Continuous
 62
     7
370
    25
100
AcDbLine
 10
266.0739390821
 20
540.1774042367
 30
0.0
 11
266.2297299138
 21
540.193778513
 31
0.0
  0
ARC
  5
3BC
330
1F
100
AcDbEntity
  8
0
  6
Continuous
 62
     7
370
    25
100
AcDbCircle
 10
271.0682922173
 20
540.4149684612
 30
0.0
 40
5.0
100
AcDbArc
 50
357.2766892263
 51
0.0
  0
LINE
  5
3BD
330
1F
100
AcDbEntity
  8
0
  6
Continuous
 62
     7
370
    25
100
AcDbLine
 10
276.0626453525
 20
540.1774042367
 30
0.0
 11
275.9068545208
 21
540.193778513
 31
0.0
  0
LINE
  5
3BE
330
1F
100
AcDbEntity
  8
0
  6
Continuous
 62
     7
370
    25
100
AcDbLine
 10
276.0028991333
 20
539.6089569326
 30
0.0
 11
275.8471083016
 21
539.6253312088
 31
0.0
  0
ARC
  5
3BF
330
1F
100
AcDbEntity
  8
0
  6
Continuous
 62
     7
370
    25
100
AcDbCircle
 10
271.0682922173
 20
540.4149684612
 30
0.0
 40
5.000000000000015
100
AcDbArc
 50
348.4630409672
 51
350.7233107737
  0
LINE
  5
3C0
330
1F
100
AcDbEntity
  8
0
  6
Continuous
 62
     7
370
    25
100
AcDbLine
 10
275.2484455272
 20
537.6715548385
 30
0.0
 11
275.1127835387
 21
537.7498793241
 31
0.0
  0
LINE
  5
3C1
330
1F
100
AcDbEntity
  8
0
  6
Continuous
 62
     7
370
    25
100
AcDbLine
 10
266.6023496719
 20
538.1665563145
 30
0.0
 11
266.7380116605
 21
538.2448808001
 31
0.0
  0
LINE
  5
3C2
330
1F
100
AcDbEntity
  8
0
  6
Continuous
 62
     7
370
    25
100
AcDbLine
 10
274.5867113832
 20
543.9675346567
 30
0.0
 11
274.4702985108
 21
543.8627160356
 31
0.0
  0
LINE
  5
3C3
330
1F
100
AcDbEntity
  8
0
  6
Continuous
 62
     7
370
    25
100
AcDbLine
 10
275.727486913
 20
542.2293291716
 30
0.0
 11
275.5785048882
 21
542.1809219774
 31
0.0
  0
LINE
  5
3C4
330
1F
100
AcDbEntity
  8
0
  6
Continuous
 62
     7
370
    25
100
AcDbLine
 10
266.4090975216
 20
542.2293291716
 30
0.0
 11
266.5580795464
 21
542.1809219774
 31
0.0
  0
LINE
  5
3C5
330
1F
100
AcDbEntity
  8
0
  6
Continuous
 62
     7
370
    25
100
AcDbLine
 10
267.9029622997
 20
536.5444792786
 30
0.0
 11
267.9950382548
 21
536.6712109585
 31
0.0
  0
ARC
  5
3C6
330
1F
100
AcDbEntity
  8
0
  6
Continuous
 62
     7
370
    25
100
AcDbCircle
 10
271.0682922173
 20
540.4149684612
 30
0.0
 40
4.999999999999999
100
AcDbArc
 50
354.8935344367
 51
357.2766892263
  0
ARC
  5
3C7
330
1F
100
AcDbEntity
  8
0
  6
Continuous
 62
     7
370
    25
100
AcDbCircle
 10
271.0682922173
 20
540.4149684612
 30
0.0
 40
5.000000000000036
100
AcDbArc
 50
350.7233107737
 51
353.1938312681
  0
LINE
  5
3C8
330
1F
100
AcDbEntity
  8
0
  6
Continuous
 62
     7
370
    25
100
AcDbLine
 10
288.6226951445
 20
549.8149684613
 30
0.0
 11
236.2588911405
 21
549.8149684613
 31
0.0
  0
LINE
  5
3C9
330
1F
100
AcDbEntity
  8
0
  6
Continuous
 62
     7
370
    25
100
AcDbLine
 10
236.4659979217
 20
550.3149684613
 30
0.0
 11
236.2588911405
 21
549.8149684613
 31
0.0
  0
LINE
  5
3CA
330
1F
100
AcDbEntity
  8
0
  6
Continuous
 62
     7
370
    25
100
AcDbLine
 10
236.4659979217
 20
550.3149684613
 30
0.0
 11
288.3340200099
 21
550.3149684613
 31
0.0
  0
LINE
  5
3CB
330
1F
100
AcDbEntity
  8
0
  6
Continuous
 62
     7
370
    25
100
AcDbLine
 10
288.3340200099
 20
550.3149684613
 30
0.0
 11
288.6226951445
 21
549.8149684613
 31
0.0
  0
LINE
  5
3CC
330
1F
100
AcDbEntity
  8
0
  6
Continuous
 62
     7
370
    25
100
AcDbLine
 10
290.7588911405
 20
544.8149684613
 30
0.0
 11
236.2588911405
 21
544.8149684613
 31
0.0
  0
LINE
  5
3CD
330
1F
100
AcDbEntity
  8
0
  6
Continuous
 62
     7
370
    25
100
AcDbLine
 10
236.2588911405
 20
549.8149684613
 30
0.0
 11
236.2588911405
 21
544.8149684613
 31
0.0
  0
LINE
  5
3CE
330
1F
100
AcDbEntity
  8
0
  6
Continuous
 62
     7
370
    25
100
AcDbLine
 10
290.7588911405
 20
546.1149684613
 30
0.0
 11
288.6226951445
 21
549.8149684613
 31
0.0
  0
LINE
  5
3CF
330
1F
100
AcDbEntity
  8
0
  6
Continuous
 62
     7
370
    25
100
AcDbLine
 10
290.7588911405
 20
544.8149684613
 30
0.0
 11
290.7588911405
 21
546.1149684613
 31
0.0
  0
LINE
  5
3D0
330
1F
100
AcDbEntity
  8
0
  6
Continuous
 62
     7
370
    25
100
AcDbLine
 10
235.2588911405
 20
550.3149684613
 30
0.0
 11
236.4659979217
 21
550.3149684613
 31
0.0
  0
LINE
  5
3D1
330
1F
100
AcDbEntity
  8
0
  6
Continuous
 62
     7
370
    25
100
AcDbLine
 10
236.2588911405
 20
549.8149684613
 30
0.0
 11
234.7588911405
 21
549.8149684613
 31
0.0
  0
LINE
  5
3D2
330
1F
100
AcDbEntity
  8
0
  6
Continuous
 62
     7
370
    25
100
AcDbLine
 10
235.2588911405
 20
550.3149684613
 30
0.0
 11
234.7588911405
 21
549.8149684613
 31
0.0
  0
LINE
  5
3D3
330
1F
100
AcDbEntity
  8
0
  6
Continuous
 62
     7
370
    25
100
AcDbLine
 10
234.7588911405
 20
544.8149684613
 30
0.0
 11
234.7588911405
 21
549.8149684613
 31
0.0
  0
LINE
  5
3D4
330
1F
100
AcDbEntity
  8
0
  6
Continuous
 62
     7
370
    25
100
AcDbLine
 10
236.2588911405
 20
544.8149684613
 30
0.0
 11
234.7588911405
 21
544.8149684613
 31
0.0
  0
LINE
  5
3D5
330
1F
100
AcDbEntity
  8
0
  6
Continuous
 62
     7
370
    25
100
AcDbLine
 10
348.0611854361
 20
550.3149684613
 30
0.0
 11
349.2682922173
 21
550.3149684613
 31
0.0
  0
LINE
  5
3D6
330
1F
100
AcDbEntity
  8
0
  6
Continuous
 62
     7
370
    25
100
AcDbLine
 10
349.2682922173
 20
550.3149684613
 30
0.0
 11
349.7682922173
 21
549.8149684613
 31
0.0
  0
LINE
  5
3D7
330
1F
100
AcDbEntity
  8
0
  6
Continuous
 62
     7
370
    25
100
AcDbLine
 10
349.7682922173
 20
549.8149684613
 30
0.0
 11
348.2682922173
 21
549.8149684613
 31
0.0
  0
LINE
  5
3D8
330
1F
100
AcDbEntity
  8
0
  6
Continuous
 62
     7
370
    25
100
AcDbLine
 10
348.0611854361
 20
550.3149684613
 30
0.0
 11
348.2682922173
 21
549.8149684613
 31
0.0
  0
LINE
  5
3D9
330
1F
100
AcDbEntity
  8
0
  6
Continuous
 62
     7
370
    25
100
AcDbLine
 10
349.7682922173
 20
544.8149684613
 30
0.0
 11
348.2682922173
 21
544.8149684613
 31
0.0
  0
LINE
  5
3DA
330
1F
100
AcDbEntity
  8
0
  6
Continuous
 62
     7
370
    25
100
AcDbLine
 10
348.2682922173
 20
544.8149684613
 30
0.0
 11
348.2682922173
 21
549.8149684613
 31
0.0
  0
LINE
  5
3DB
330
1F
100
AcDbEntity
  8
0
  6
Continuous
 62
     7
370
    25
100
AcDbLine
 10
349.7682922173
 20
549.8149684613
 30
0.0
 11
349.7682922173
 21
544.8149684613
 31
0.0
  0
LINE
  5
3DC
330
1F
100
AcDbEntity
  8
0
  6
Continuous
 62
     7
370
    25
100
AcDbLine
 10
296.1931633479
 20
550.3149684613
 30
0.0
 11
348.0611854361
 21
550.3149684613
 31
0.0
  0
LINE
  5
3DD
330
1F
100
AcDbEntity
  8
0
  6
Continuous
 62
     7
370
    25
100
AcDbLine
 10
348.2682922173
 20
549.8149684613
 30
0.0
 11
295.9044882133
 21
549.8149684613
 31
0.0
  0
LINE
  5
3DE
330
1F
100
AcDbEntity
  8
0
  6
Continuous
 62
     7
370
    25
100
AcDbLine
 10
295.9044882133
 20
549.8149684613
 30
0.0
 11
296.1931633479
 21
550.3149684613
 31
0.0
  0
LINE
  5
3DF
330
1F
100
AcDbEntity
  8
0
  6
Continuous
 62
     7
370
    25
100
AcDbLine
 10
293.7682922173
 20
544.8149684613
 30
0.0
 11
293.7682922173
 21
546.1149684613
 31
0.0
  0
LINE
  5
3E0
330
1F
100
AcDbEntity
  8
0
  6
Continuous
 62
     7
370
    25
100
AcDbLine
 10
295.9044882133
 20
549.8149684613
 30
0.0
 11
293.7682922173
 21
546.1149684613
 31
0.0
  0
LINE
  5
3E1
330
1F
100
AcDbEntity
  8
0
  6
Continuous
 62
     7
370
    25
100
AcDbLine
 10
348.2682922173
 20
544.8149684613
 30
0.0
 11
293.7682922173
 21
544.8149684613
 31
0.0
  0
LINE
  5
3E2
330
1F
100
AcDbEntity
  8
0
  6
Continuous
 62
     7
370
    25
100
AcDbLine
 10
291.7682922173
 20
550.4149684613
 30
0.0
 11
291.7682922173
 21
530.4149684613
 31
0.0
  0
LINE
  5
3E3
330
1F
100
AcDbEntity
  8
0
  6
Continuous
 62
     7
370
    25
100
AcDbLine
 10
259.162778629
 20
543.7149684612
 30
0.0
 11
259.2660701779
 21
544.1149684613
 31
0.0
  0
LINE
  5
3E4
330
1F
100
AcDbEntity
  8
0
  6
Continuous
 62
     7
370
    25
100
AcDbLine
 10
263.9745563272
 20
550.4149684613
 30
0.0
 11
263.5855136053
 21
550.3149684613
 31
0.0
  0
LINE
  5
3E5
330
1F
100
AcDbEntity
  8
0
  6
Continuous
 62
     7
370
    25
100
AcDbLine
 10
263.9745563272
 20
550.4149684613
 30
0.0
 11
291.7682922173
 21
550.4149684613
 31
0.0
  0
LINE
  5
3E6
330
1F
100
AcDbEntity
  8
0
  6
Continuous
 62
     7
370
    25
100
AcDbLine
 10
291.7682922173
 20
530.4149684613
 30
0.0
 11
289.5682922173
 21
530.4149684613
 31
0.0
  0
LINE
  5
3E7
330
1F
100
AcDbEntity
  8
0
  6
Continuous
 62
     7
370
    25
100
AcDbLine
 10
289.5682922173
 20
530.4149684612
 30
0.0
 11
236.4753989985
 21
530.4149684612
 31
0.0
  0
LINE
  5
3E8
330
1F
100
AcDbEntity
  8
0
  6
Continuous
 62
     7
370
    25
100
AcDbLine
 10
236.4753989985
 20
530.4149684612
 30
0.0
 11
236.2682922173
 21
530.9149684612
 31
0.0
  0
LINE
  5
3E9
330
1F
100
AcDbEntity
  8
0
  6
Continuous
 62
     7
370
    25
100
AcDbLine
 10
236.2682922173
 20
530.9149684612
 30
0.0
 11
289.7653394383
 21
530.9149684612
 31
0.0
  0
ARC
  5
3EA
330
1F
100
AcDbEntity
  8
0
  6
Continuous
 62
     7
370
    25
100
AcDbCircle
 10
272.9222165316
 20
537.2639219774
 30
0.0
 40
18.00000000000004
100
AcDbArc
 50
337.6355027544
 51
339.3462490611
  0
LINE
  5
3EB
330
1F
100
AcDbEntity
  8
0
  6
Continuous
 62
     7
370
    25
100
AcDbLine
 10
236.2682922173
 20
535.4149684612
 30
0.0
 11
236.2682922173
 21
530.9149684612
 31
0.0
  0
ARC
  5
3EC
330
1F
100
AcDbEntity
  8
0
  6
Continuous
 62
     7
370
    25
100
AcDbCircle
 10
272.9222165316
 20
537.2639219774
 30
0.0
 40
18.00000000000004
100
AcDbArc
 50
339.3462490611
 51
352.5016628894
  0
LINE
  5
3ED
330
1F
100
AcDbEntity
  8
0
  6
Continuous
 62
     7
370
    25
100
AcDbLine
 10
290.7682922173
 20
535.4149684612
 30
0.0
 11
290.7682922173
 21
534.9149684612
 31
0.0
  0
LINE
  5
3EE
330
1F
100
AcDbEntity
  8
0
  6
Continuous
 62
     7
370
    25
100
AcDbLine
 10
236.2682922173
 20
535.4149684612
 30
0.0
 11
290.7682922173
 21
535.4149684612
 31
0.0
  0
LINE
  5
3EF
330
1F
100
AcDbEntity
  8
0
  6
Continuous
 62
     7
370
    25
100
AcDbLine
 10
236.4753989985
 20
530.4149684612
 30
0.0
 11
235.2682922173
 21
530.4149684612
 31
0.0
  0
LINE
  5
3F0
330
1F
100
AcDbEntity
  8
0
  6
Continuous
 62
     7
370
    25
100
AcDbLine
 10
235.2682922173
 20
530.4149684612
 30
0.0
 11
234.7682922173
 21
530.9149684612
 31
0.0
  0
LINE
  5
3F1
330
1F
100
AcDbEntity
  8
0
  6
Continuous
 62
     7
370
    25
100
AcDbLine
 10
234.7682922173
 20
530.9149684612
 30
0.0
 11
236.2682922173
 21
530.9149684612
 31
0.0
  0
LINE
  5
3F2
330
1F
100
AcDbEntity
  8
0
  6
Continuous
 62
     7
370
    25
100
AcDbLine
 10
234.7682922173
 20
530.9149684612
 30
0.0
 11
234.7682922173
 21
535.4149684612
 31
0.0
  0
LINE
  5
3F3
330
1F
100
AcDbEntity
  8
0
  6
Continuous
 62
     7
370
    25
100
AcDbLine
 10
234.7682922173
 20
535.4149684612
 30
0.0
 11
236.2682922173
 21
535.4149684612
 31
0.0
  0
LINE
  5
3F4
330
1F
100
AcDbEntity
  8
0
  6
Continuous
 62
     7
370
    25
100
AcDbLine
 10
250.2682922173
 20
536.1149684613
 30
0.0
 11
250.2682922173
 21
543.7149684612
 31
0.0
  0
LINE
  5
3F5
330
1F
100
AcDbEntity
  8
0
  6
Continuous
 62
     7
370
    25
100
AcDbLine
 10
250.2682922173
 20
543.7149684612
 30
0.0
 11
261.1138753955
 21
543.7149684612
 31
0.0
  0
SPLINE
  5
3F6
330
1F
100
AcDbEntity
  8
0
  6
Continuous
 62
     7
370
    25
100
AcDbSpline
210
0.0
220
0.0
230
1.0
 70
     8
 71
     3
 72
     9
 73
     5
 74
     0
 42
0.000000001
 43
0.00000001
 40
0.0
 40
0.0
 40
0.0
 40
0.0
 40
0.722667096630294
 40
1.0
 40
1.0
 40
1.0
 40
1.0
 10
264.0296480382232
 20
543.879367541803
 30
0.0
 10
263.8006316429794
 20
543.814086926287
 30
0.0
 10
263.4837272255627
 20
543.7237540249821
 30
0.0
 10
263.1710542392831
 20
543.7168759717226
 30
0.0
 10
263.0843397321928
 20
543.7149684612426
 30
0.0
  0
LINE
  5
3F7
330
1F
100
AcDbEntity
  8
0
  6
Continuous
 62
     7
370
    25
100
AcDbLine
 10
261.1138753955
 20
543.7149684612
 30
0.0
 11
263.0843397322
 21
543.7149684612
 31
0.0
  0
ARC
  5
3F8
330
1F
100
AcDbEntity
  8
0
  6
Continuous
 62
     7
370
    25
100
AcDbCircle
 10
271.0682922173
 20
540.4149684612
 30
0.0
 40
5.000000000000015
100
AcDbArc
 50
300.6834171093
 51
348.4630409672
  0
ARC
  5
3F9
330
1F
100
AcDbEntity
  8
0
  6
Continuous
 62
     7
370
    25
100
AcDbCircle
 10
271.0682922173
 20
540.4149684612
 30
0.0
 40
4.999999999999986
100
AcDbArc
 50
132.2685844293
 51
239.3165828907
  0
ARC
  5
3FA
330
1F
100
AcDbEntity
  8
0
  6
Continuous
 62
     7
370
    25
100
AcDbCircle
 10
271.0682922173
 20
540.4149684612
 30
0.0
 40
5.000000000000057
100
AcDbArc
 50
0.0
 51
47.73141557069999
  0
LINE
  5
3FB
330
1F
100
AcDbEntity
  8
0
  6
Continuous
 62
     7
370
    25
100
AcDbLine
 10
290.7682922173
 20
539.4149684612
 30
0.0
 11
275.9672717029
 21
539.4149684612
 31
0.0
  0
LINE
  5
3FC
330
1F
100
AcDbEntity
  8
0
  6
Continuous
 62
     7
370
    25
100
AcDbLine
 10
282.0278840115
 20
544.4149684612
 30
0.0
 11
283.5682922173
 21
544.4149684612
 31
0.0
  0
LINE
  5
3FD
330
1F
100
AcDbEntity
  8
0
  6
Continuous
 62
     7
370
    25
100
AcDbLine
 10
283.5682922173
 20
540.4149684612
 30
0.0
 11
283.5682922173
 21
544.4149684612
 31
0.0
  0
LINE
  5
3FE
330
1F
100
AcDbEntity
  8
0
  6
Continuous
 62
     7
370
    25
100
AcDbLine
 10
276.0682922173
 20
540.4149684612
 30
0.0
 11
283.5682922173
 21
540.4149684612
 31
0.0
  0
ARC
  5
3FF
330
1F
100
AcDbEntity
  8
0
  6
Continuous
 62
     7
370
    25
100
AcDbCircle
 10
263.0843397322
 20
546.5149684612
 30
0.0
 40
2.800000000000105
100
AcDbArc
 50
289.7313357357
 51
301.0027191344
  0
LINE
  5
400
330
1F
100
AcDbEntity
  8
0
  6
Continuous
 62
     7
370
    25
100
AcDbLine
 10
290.7682922173
 20
539.4149684612
 30
0.0
 11
290.7682922173
 21
535.4149684612
 31
0.0
  0
LINE
  5
401
330
1F
100
AcDbEntity
  8
0
  6
Continuous
 62
     7
370
    25
100
AcDbLine
 10
349.7682922173
 20
535.4149684613
 30
0.0
 11
349.7682922173
 21
530.9149684613
 31
0.0
  0
LINE
  5
402
330
1F
100
AcDbEntity
  8
0
  6
Continuous
 62
     7
370
    25
100
AcDbLine
 10
348.2682922173
 20
530.9149684613
 30
0.0
 11
349.7682922173
 21
530.9149684613
 31
0.0
  0
LINE
  5
403
330
1F
100
AcDbEntity
  8
0
  6
Continuous
 62
     7
370
    25
100
AcDbLine
 10
348.2682922173
 20
530.9149684613
 30
0.0
 11
348.2682922173
 21
535.4149684613
 31
0.0
  0
LINE
  5
404
330
1F
100
AcDbEntity
  8
0
  6
Continuous
 62
     7
370
    25
100
AcDbLine
 10
348.2682922173
 20
535.4149684613
 30
0.0
 11
349.7682922173
 21
535.4149684613
 31
0.0
  0
LINE
  5
405
330
1F
100
AcDbEntity
  8
0
  6
Continuous
 62
     7
370
    25
100
AcDbLine
 10
349.2682922173
 20
530.4149684613
 30
0.0
 11
348.0611854361
 21
530.4149684613
 31
0.0
  0
LINE
  5
406
330
1F
100
AcDbEntity
  8
0
  6
Continuous
 62
     7
370
    25
100
AcDbLine
 10
348.0611854361
 20
530.4149684613
 30
0.0
 11
348.2682922173
 21
530.9149684613
 31
0.0
  0
LINE
  5
407
330
1F
100
AcDbEntity
  8
0
  6
Continuous
 62
     7
370
    25
100
AcDbLine
 10
349.2682922173
 20
530.4149684613
 30
0.0
 11
349.7682922173
 21
530.9149684613
 31
0.0
  0
LINE
  5
408
330
1F
100
AcDbEntity
  8
0
  6
Continuous
 62
     7
370
    25
100
AcDbLine
 10
291.9682922173
 20
530.9149684613
 30
0.0
 11
348.2682922173
 21
530.9149684613
 31
0.0
  0
LINE
  5
409
330
1F
100
AcDbEntity
  8
0
  6
Continuous
 62
     7
370
    25
100
AcDbLine
 10
293.7682922173
 20
535.4149684613
 30
0.0
 11
291.9682922173
 21
530.9149684613
 31
0.0
  0
LINE
  5
40A
330
1F
100
AcDbEntity
  8
0
  6
Continuous
 62
     7
370
    25
100
AcDbLine
 10
348.2682922173
 20
535.4149684613
 30
0.0
 11
293.7682922173
 21
535.4149684613
 31
0.0
  0
LINE
  5
40B
330
1F
100
AcDbEntity
  8
0
  6
Continuous
 62
     7
370
    25
100
AcDbLine
 10
348.0611854361
 20
530.4149684613
 30
0.0
 11
291.7682922173
 21
530.4149684613
 31
0.0
  0
LINE
  5
40C
330
1F
100
AcDbEntity
  8
0
  6
Continuous
 62
     7
370
    25
100
AcDbLine
 10
291.7682922173
 20
530.4149684613
 30
0.0
 11
291.9682922173
 21
530.9149684613
 31
0.0
  0
LINE
  5
40D
330
1F
100
AcDbEntity
  8
0
  6
Continuous
 62
     7
370
    25
100
AcDbLine
 10
323.422709039
 20
543.7149684613
 30
0.0
 11
334.2682922173
 21
543.7149684613
 31
0.0
  0
LINE
  5
40E
330
1F
100
AcDbEntity
  8
0
  6
Continuous
 62
     7
370
    25
100
AcDbLine
 10
334.2682922173
 20
536.1149684613
 30
0.0
 11
334.2682922173
 21
543.7149684613
 31
0.0
  0
LINE
  5
40F
330
1F
100
AcDbEntity
  8
0
  6
Continuous
 62
     7
370
    25
100
AcDbLine
 10
320.5069363964
 20
543.7149684613
 30
0.0
 11
323.422709039
 21
543.7149684613
 31
0.0
  0
LINE
  5
410
330
1F
100
AcDbEntity
  8
0
  6
Continuous
 62
     7
370
    25
100
AcDbLine
 10
293.7682922173
 20
543.7149684613
 30
0.0
 11
293.7682922173
 21
535.4149684613
 31
0.0
  0
LINE
  5
411
330
1F
100
AcDbEntity
  8
0
  6
Continuous
 62
     7
370
    25
100
AcDbLine
 10
293.7682922173
 20
543.7149684613
 30
0.0
 11
320.5069363964
 21
543.7149684613
 31
0.0
  0
LINE
  5
412
330
1F
100
AcDbEntity
  8
0
  6
Continuous
 62
     7
370
    25
100
AcDbLine
 10
321.5620281074
 20
550.4149684613
 30
0.0
 11
291.7682922173
 21
550.4149684613
 31
0.0
  0
LINE
  5
413
330
1F
100
AcDbEntity
  8
0
  6
Continuous
 62
     7
370
    25
100
AcDbLine
 10
321.9510708292
 20
550.3149684613
 30
0.0
 11
321.5620281074
 21
550.4149684613
 31
0.0
  0
LINE
  5
414
330
1F
100
AcDbEntity
  8
0
  6
Continuous
 62
     8
370
    25
100
AcDbLine
 10
277.9682922173
 20
535.4149684612
 30
0.0
 11
277.9682922173
 21
536.1149684613
 31
0.0
  0
LINE
  5
415
330
1F
100
AcDbEntity
  8
0
  6
Continuous
 62
     8
370
    25
100
AcDbLine
 10
243.2682922173
 20
536.1149684613
 30
0.0
 11
243.2682922173
 21
535.4149684612
 31
0.0
  0
LINE
  5
416
330
1F
100
AcDbEntity
  8
0
  6
Continuous
 62
     8
370
    25
100
AcDbLine
 10
340.0560351343
 20
544.1149684613
 30
0.0
 11
340.0560351343
 21
544.8149684613
 31
0.0
  0
LINE
  5
417
330
1F
100
AcDbEntity
  8
0
  6
Continuous
 62
     8
370
    25
100
AcDbLine
 10
305.3560351343
 20
544.8149684613
 30
0.0
 11
305.3560351343
 21
544.1149684613
 31
0.0
  0
LINE
  5
418
330
1F
100
AcDbEntity
  8
0
  6
Continuous
 62
     8
370
    25
100
AcDbLine
 10
341.2682922173
 20
535.4149684613
 30
0.0
 11
341.2682922173
 21
536.1149684613
 31
0.0
  0
LINE
  5
419
330
1F
100
AcDbEntity
  8
0
  6
Continuous
 62
     8
370
    25
100
AcDbLine
 10
306.5682922173
 20
536.1149684613
 30
0.0
 11
306.5682922173
 21
535.4149684613
 31
0.0
  0
LINE
  5
41A
330
1F
100
AcDbEntity
  8
0
  6
Continuous
 62
     8
370
    25
100
AcDbLine
 10
277.9682922173
 20
544.1149684613
 30
0.0
 11
277.9682922173
 21
544.8149684613
 31
0.0
  0
LINE
  5
41B
330
1F
100
AcDbEntity
  8
0
  6
Continuous
 62
     8
370
    25
100
AcDbLine
 10
243.2682922173
 20
544.8149684613
 30
0.0
 11
243.2682922173
 21
544.1149684613
 31
0.0
  0
LINE
  5
41C
330
1F
100
AcDbEntity
  8
0
  6
Continuous
 62
     8
370
    25
100
AcDbLine
 10
263.9753379668
 20
544.1149684613
 30
0.0
 11
263.8542912601
 21
543.8730300844
 31
0.0
  0
LINE
  5
41D
330
1F
100
AcDbEntity
  8
0
  6
Continuous
 62
     8
370
    25
100
AcDbLine
 10
261.1138753955
 20
536.1149684613
 30
0.0
 11
261.1138753955
 21
543.7149684612
 31
0.0
  0
LINE
  5
41E
330
1F
100
AcDbEntity
  8
0
  6
Continuous
 62
     8
370
    25
100
AcDbLine
 10
264.0296480382
 20
536.1149684613
 30
0.0
 11
264.0296480382
 21
543.8793675418
 31
0.0
  0
LINE
  5
41F
330
1F
100
AcDbEntity
  8
0
  6
Continuous
 62
     8
370
    25
100
AcDbLine
 10
323.422709039
 20
536.1149684613
 30
0.0
 11
323.422709039
 21
543.7149684613
 31
0.0
  0
LINE
  5
420
330
1F
100
AcDbEntity
  8
0
  6
Continuous
 62
     8
370
    25
100
AcDbLine
 10
320.5069363964
 20
536.1149684613
 30
0.0
 11
320.5069363964
 21
543.7149684613
 31
0.0
  0
LINE
  5
421
330
1F
100
AcDbEntity
  8
0
  6
Continuous
 62
     7
370
    25
100
AcDbLine
 10
179.0788329654
 20
460.9482460533
 30
0.0
 11
178.6788329654
 21
460.9482460533
 31
0.0
  0
LINE
  5
422
330
1F
100
AcDbEntity
  8
0
  6
Continuous
 62
     7
370
    25
100
AcDbLine
 10
178.6788329654
 20
454.9482460534
 30
0.0
 11
179.0788329654
 21
454.9482460534
 31
0.0
  0
LINE
  5
423
330
1F
100
AcDbEntity
  8
0
  6
Continuous
 62
     7
370
    25
100
AcDbLine
 10
179.0788329654
 20
410.9482460533
 30
0.0
 11
178.6788329654
 21
410.9482460533
 31
0.0
  0
LINE
  5
424
330
1F
100
AcDbEntity
  8
0
  6
Continuous
 62
     7
370
    25
100
AcDbLine
 10
178.6788329654
 20
404.9482460534
 30
0.0
 11
179.0788329654
 21
404.9482460534
 31
0.0
  0
LINE
  5
425
330
1F
100
AcDbEntity
  8
0
  6
Continuous
 62
     7
370
    25
100
AcDbLine
 10
186.6788329654
 20
463.4482460533
 30
0.0
 11
179.0788329654
 21
463.4482460533
 31
0.0
  0
LINE
  5
426
330
1F
100
AcDbEntity
  8
0
  6
Continuous
 62
     7
370
    25
100
AcDbLine
 10
179.0788329654
 20
402.4482460533
 30
0.0
 11
186.6788329654
 21
402.4482460533
 31
0.0
  0
ARC
  5
427
330
1F
100
AcDbEntity
  8
0
  6
Continuous
 62
     7
370
    25
100
AcDbCircle
 10
182.3788329654
 20
444.6982460533
 30
0.0
 40
4.250000000000026
100
AcDbArc
 50
209.4729316585
 51
150.5270683415
  0
LINE
  5
428
330
1F
100
AcDbEntity
  8
0
  6
Continuous
 62
     7
370
    25
100
AcDbLine
 10
180.9674828014
 20
446.5262023022
 30
0.0
 11
180.0901013349
 21
444.389959082
 31
0.0
  0
LINE
  5
429
330
1F
100
AcDbEntity
  8
0
  6
Continuous
 62
     7
370
    25
100
AcDbLine
 10
180.0901013349
 20
444.389959082
 30
0.0
 11
181.501451499
 21
442.5620028332
 31
0.0
  0
LINE
  5
42A
330
1F
100
AcDbEntity
  8
0
  6
Continuous
 62
     7
370
    25
100
AcDbLine
 10
181.501451499
 20
442.5620028332
 30
0.0
 11
183.7901831295
 21
442.8702898045
 31
0.0
  0
LINE
  5
42B
330
1F
100
AcDbEntity
  8
0
  6
Continuous
 62
     7
370
    25
100
AcDbLine
 10
183.7901831295
 20
442.8702898045
 30
0.0
 11
184.667564596
 21
445.0065330246
 31
0.0
  0
LINE
  5
42C
330
1F
100
AcDbEntity
  8
0
  6
Continuous
 62
     7
370
    25
100
AcDbLine
 10
184.667564596
 20
445.0065330246
 30
0.0
 11
183.2562144319
 21
446.8344892735
 31
0.0
  0
LINE
  5
42D
330
1F
100
AcDbEntity
  8
0
  6
Continuous
 62
     7
370
    25
100
AcDbLine
 10
183.2562144319
 20
446.8344892735
 30
0.0
 11
180.9674828014
 21
446.5262023022
 31
0.0
  0
ARC
  5
42E
330
1F
100
AcDbEntity
  8
0
  6
Continuous
 62
     7
370
    25
100
AcDbCircle
 10
182.3788329654
 20
421.1982460533
 30
0.0
 40
4.250000000000044
100
AcDbArc
 50
209.4729316585
 51
71.1877941436
  0
ARC
  5
42F
330
1F
100
AcDbEntity
  8
0
  6
Continuous
 62
     7
370
    25
100
AcDbCircle
 10
182.3788329654
 20
421.1982460533
 30
0.0
 40
4.250000000000044
100
AcDbArc
 50
71.1877941436
 51
150.5270683415
  0
LINE
  5
430
330
1F
100
AcDbEntity
  8
0
  6
Continuous
 62
     7
370
    25
100
AcDbLine
 10
184.116784787
 20
422.7190539963
 30
0.0
 11
181.9307505634
 21
423.4637604528
 31
0.0
  0
LINE
  5
431
330
1F
100
AcDbEntity
  8
0
  6
Continuous
 62
     7
370
    25
100
AcDbLine
 10
181.9307505634
 20
423.4637604528
 30
0.0
 11
180.1927987418
 21
421.9429525099
 31
0.0
  0
LINE
  5
432
330
1F
100
AcDbEntity
  8
0
  6
Continuous
 62
     7
370
    25
100
AcDbLine
 10
180.1927987418
 20
421.9429525099
 30
0.0
 11
180.6408811439
 21
419.6774381104
 31
0.0
  0
LINE
  5
433
330
1F
100
AcDbEntity
  8
0
  6
Continuous
 62
     7
370
    25
100
AcDbLine
 10
180.6408811439
 20
419.6774381104
 30
0.0
 11
182.8269153675
 21
418.9327316539
 31
0.0
  0
LINE
  5
434
330
1F
100
AcDbEntity
  8
0
  6
Continuous
 62
     7
370
    25
100
AcDbLine
 10
182.8269153675
 20
418.9327316539
 30
0.0
 11
184.5648671891
 21
420.4535395968
 31
0.0
  0
LINE
  5
435
330
1F
100
AcDbEntity
  8
0
  6
Continuous
 62
     7
370
    25
100
AcDbLine
 10
184.5648671891
 20
420.4535395968
 30
0.0
 11
184.116784787
 21
422.7190539963
 31
0.0
  0
LINE
  5
436
330
1F
100
AcDbEntity
  8
0
  6
Continuous
 62
     7
370
    25
100
AcDbLine
 10
177.9788329654
 20
467.5642298546
 30
0.0
 11
178.6788329654
 21
467.5642298546
 31
0.0
  0
LINE
  5
437
330
1F
100
AcDbEntity
  8
0
  6
Continuous
 62
     7
370
    25
100
AcDbLine
 10
178.6788329654
 20
467.5642298546
 30
0.0
 11
178.6788329654
 21
464.0642298546
 31
0.0
  0
LINE
  5
438
330
1F
100
AcDbEntity
  8
0
  6
Continuous
 62
     7
370
    25
100
AcDbLine
 10
178.6788329654
 20
398.0642298546
 30
0.0
 11
178.6788329654
 21
464.0642298546
 31
0.0
  0
LINE
  5
439
330
1F
100
AcDbEntity
  8
0
  6
Continuous
 62
     7
370
    25
100
AcDbLine
 10
178.6788329654
 20
394.5642298546
 30
0.0
 11
177.9788329654
 21
394.5642298546
 31
0.0
  0
LINE
  5
43A
330
1F
100
AcDbEntity
  8
0
  6
Continuous
 62
     7
370
    25
100
AcDbLine
 10
178.6788329654
 20
398.0642298546
 30
0.0
 11
178.6788329654
 21
394.5642298546
 31
0.0
  0
LINE
  5
43B
330
1F
100
AcDbEntity
  8
0
  6
Continuous
 62
     7
370
    25
100
AcDbLine
 10
186.6788329654
 20
465.9482460533
 30
0.0
 11
186.6788329654
 21
469.4482460533
 31
0.0
  0
LINE
  5
43C
330
1F
100
AcDbEntity
  8
0
  6
Continuous
 62
     7
370
    25
100
AcDbLine
 10
186.6788329654
 20
469.4482460533
 30
0.0
 11
187.3788329654
 21
469.4482460533
 31
0.0
  0
LINE
  5
43D
330
1F
100
AcDbEntity
  8
0
  6
Continuous
 62
     7
370
    25
100
AcDbLine
 10
186.6788329654
 20
399.9482460533
 30
0.0
 11
186.6788329654
 21
465.9482460533
 31
0.0
  0
LINE
  5
43E
330
1F
100
AcDbEntity
  8
0
  6
Continuous
 62
     7
370
    25
100
AcDbLine
 10
187.3788329654
 20
396.4482460533
 30
0.0
 11
186.6788329654
 21
396.4482460533
 31
0.0
  0
LINE
  5
43F
330
1F
100
AcDbEntity
  8
0
  6
Continuous
 62
     7
370
    25
100
AcDbLine
 10
186.6788329654
 20
396.4482460533
 30
0.0
 11
186.6788329654
 21
399.9482460533
 31
0.0
  0
LINE
  5
440
330
1F
100
AcDbEntity
  8
0
  6
Continuous
 62
     7
370
    25
100
AcDbLine
 10
177.9788329654
 20
469.4482460533
 30
0.0
 11
178.6788329654
 21
469.4482460533
 31
0.0
  0
LINE
  5
441
330
1F
100
AcDbEntity
  8
0
  6
Continuous
 62
     7
370
    25
100
AcDbLine
 10
178.6788329654
 20
469.4482460533
 30
0.0
 11
178.6788329654
 21
467.5642298546
 31
0.0
  0
LINE
  5
442
330
1F
100
AcDbEntity
  8
0
  6
Continuous
 62
     7
370
    25
100
AcDbLine
 10
192.5788329655
 20
417.9482460533
 30
0.0
 11
192.5788329655
 21
447.9482460533
 31
0.0
  0
LINE
  5
443
330
1F
100
AcDbEntity
  8
0
  6
Continuous
 62
     7
370
    25
100
AcDbLine
 10
192.5788329655
 20
447.9482460533
 30
0.0
 11
192.3788329654
 21
447.9482460533
 31
0.0
  0
LINE
  5
444
330
1F
100
AcDbEntity
  8
0
  6
Continuous
 62
     7
370
    25
100
AcDbLine
 10
192.5788329655
 20
417.9482460533
 30
0.0
 11
192.3788329654
 21
417.9482460533
 31
0.0
  0
LINE
  5
445
330
1F
100
AcDbEntity
  8
0
  6
Continuous
 62
     7
370
    25
100
AcDbLine
 10
178.6788329654
 20
449.3482460533
 30
0.0
 11
179.0788329654
 21
449.3482460533
 31
0.0
  0
LINE
  5
446
330
1F
100
AcDbEntity
  8
0
  6
Continuous
 62
     7
370
    25
100
AcDbLine
 10
179.0788329654
 20
416.5482460533
 30
0.0
 11
178.6788329654
 21
416.5482460533
 31
0.0
  0
LINE
  5
447
330
1F
100
AcDbEntity
  8
0
  6
Continuous
 62
     7
370
    25
100
AcDbLine
 10
177.9788329654
 20
471.4482460533
 30
0.0
 11
172.9788329654
 21
471.4482460533
 31
0.0
  0
LINE
  5
448
330
1F
100
AcDbEntity
  8
0
  6
Continuous
 62
     7
370
    25
100
AcDbLine
 10
172.9788329654
 20
472.9482460533
 30
0.0
 11
172.9788329654
 21
471.4482460533
 31
0.0
  0
LINE
  5
449
330
1F
100
AcDbEntity
  8
0
  6
Continuous
 62
     7
370
    25
100
AcDbLine
 10
172.9788329654
 20
472.9482460533
 30
0.0
 11
177.9788329654
 21
472.9482460533
 31
0.0
  0
LINE
  5
44A
330
1F
100
AcDbEntity
  8
0
  6
Continuous
 62
     7
370
    25
100
AcDbLine
 10
177.9788329654
 20
472.9482460533
 30
0.0
 11
177.9788329654
 21
471.4482460533
 31
0.0
  0
LINE
  5
44B
330
1F
100
AcDbEntity
  8
0
  6
Continuous
 62
     7
370
    25
100
AcDbLine
 10
172.9788329654
 20
394.4482460533
 30
0.0
 11
177.9788329654
 21
394.4482460533
 31
0.0
  0
LINE
  5
44C
330
1F
100
AcDbEntity
  8
0
  6
Continuous
 62
     7
370
    25
100
AcDbLine
 10
172.9788329654
 20
471.4482460533
 30
0.0
 11
172.9788329654
 21
394.4482460533
 31
0.0
  0
LINE
  5
44D
330
1F
100
AcDbEntity
  8
0
  6
Continuous
 62
     7
370
    25
100
AcDbLine
 10
177.9788329654
 20
471.4482460533
 30
0.0
 11
177.9788329654
 21
394.4482460533
 31
0.0
  0
LINE
  5
44E
330
1F
100
AcDbEntity
  8
0
  6
Continuous
 62
     7
370
    25
100
AcDbLine
 10
172.4788329654
 20
471.2411392722
 30
0.0
 11
172.4788329654
 21
472.4482460533
 31
0.0
  0
LINE
  5
44F
330
1F
100
AcDbEntity
  8
0
  6
Continuous
 62
     7
370
    25
100
AcDbLine
 10
172.4788329654
 20
472.4482460533
 30
0.0
 11
172.9788329654
 21
472.9482460533
 31
0.0
  0
LINE
  5
450
330
1F
100
AcDbEntity
  8
0
  6
Continuous
 62
     7
370
    25
100
AcDbLine
 10
172.4788329654
 20
471.2411392722
 30
0.0
 11
172.9788329654
 21
471.4482460533
 31
0.0
  0
LINE
  5
451
330
1F
100
AcDbEntity
  8
0
  6
Continuous
 62
     7
370
    25
100
AcDbLine
 10
172.4788329654
 20
394.6553528345
 30
0.0
 11
172.4788329654
 21
471.2411392722
 31
0.0
  0
LINE
  5
452
330
1F
100
AcDbEntity
  8
0
  6
Continuous
 62
     7
370
    25
100
AcDbLine
 10
172.4788329654
 20
394.6553528345
 30
0.0
 11
172.9788329654
 21
394.4482460533
 31
0.0
  0
LINE
  5
453
330
1F
100
AcDbEntity
  8
0
  6
Continuous
 62
     7
370
    25
100
AcDbLine
 10
177.9788329654
 20
392.9482460533
 30
0.0
 11
172.9788329654
 21
392.9482460533
 31
0.0
  0
LINE
  5
454
330
1F
100
AcDbEntity
  8
0
  6
Continuous
 62
     7
370
    25
100
AcDbLine
 10
172.9788329654
 20
394.4482460533
 30
0.0
 11
172.9788329654
 21
392.9482460533
 31
0.0
  0
LINE
  5
455
330
1F
100
AcDbEntity
  8
0
  6
Continuous
 62
     7
370
    25
100
AcDbLine
 10
177.9788329654
 20
394.4482460533
 30
0.0
 11
177.9788329654
 21
392.9482460533
 31
0.0
  0
LINE
  5
456
330
1F
100
AcDbEntity
  8
0
  6
Continuous
 62
     7
370
    25
100
AcDbLine
 10
172.4788329654
 20
393.4482460533
 30
0.0
 11
172.4788329654
 21
394.6553528345
 31
0.0
  0
LINE
  5
457
330
1F
100
AcDbEntity
  8
0
  6
Continuous
 62
     7
370
    25
100
AcDbLine
 10
172.4788329654
 20
393.4482460533
 30
0.0
 11
172.9788329654
 21
392.9482460533
 31
0.0
  0
LINE
  5
458
330
1F
100
AcDbEntity
  8
0
  6
Continuous
 62
     7
370
    25
100
AcDbLine
 10
179.0788329654
 20
449.5482460533
 30
0.0
 11
178.6788329654
 21
449.5482460533
 31
0.0
  0
LINE
  5
459
330
1F
100
AcDbEntity
  8
0
  6
Continuous
 62
     7
370
    25
100
AcDbLine
 10
178.6788329654
 20
416.3482460533
 30
0.0
 11
179.0788329654
 21
416.3482460533
 31
0.0
  0
LINE
  5
45A
330
1F
100
AcDbEntity
  8
0
  6
Continuous
 62
     7
370
    25
100
AcDbLine
 10
187.3788329654
 20
471.4482460533
 30
0.0
 11
187.3788329654
 21
394.4482460533
 31
0.0
  0
LINE
  5
45B
330
1F
100
AcDbEntity
  8
0
  6
Continuous
 62
     7
370
    25
100
AcDbLine
 10
191.8788329654
 20
471.4482460533
 30
0.0
 11
187.3788329654
 21
471.4482460533
 31
0.0
  0
LINE
  5
45C
330
1F
100
AcDbEntity
  8
0
  6
Continuous
 62
     7
370
    25
100
AcDbLine
 10
191.8788329654
 20
394.4482460533
 30
0.0
 11
191.8788329654
 21
471.4482460533
 31
0.0
  0
LINE
  5
45D
330
1F
100
AcDbEntity
  8
0
  6
Continuous
 62
     7
370
    25
100
AcDbLine
 10
187.3788329654
 20
394.4482460533
 30
0.0
 11
191.8788329654
 21
394.4482460533
 31
0.0
  0
LINE
  5
45E
330
1F
100
AcDbEntity
  8
0
  6
Continuous
 62
     7
370
    25
100
AcDbLine
 10
187.3788329654
 20
471.4482460533
 30
0.0
 11
187.3788329654
 21
472.9482460533
 31
0.0
  0
LINE
  5
45F
330
1F
100
AcDbEntity
  8
0
  6
Continuous
 62
     7
370
    25
100
AcDbLine
 10
187.3788329654
 20
472.9482460533
 30
0.0
 11
191.8788329654
 21
472.9482460533
 31
0.0
  0
LINE
  5
460
330
1F
100
AcDbEntity
  8
0
  6
Continuous
 62
     7
370
    25
100
AcDbLine
 10
191.8788329654
 20
471.4482460533
 30
0.0
 11
191.8788329654
 21
472.9482460533
 31
0.0
  0
LINE
  5
461
330
1F
100
AcDbEntity
  8
0
  6
Continuous
 62
     7
370
    25
100
AcDbLine
 10
192.3788329654
 20
472.4482460533
 30
0.0
 11
192.3788329654
 21
471.2411392722
 31
0.0
  0
LINE
  5
462
330
1F
100
AcDbEntity
  8
0
  6
Continuous
 62
     7
370
    25
100
AcDbLine
 10
192.3788329654
 20
471.2411392722
 30
0.0
 11
191.8788329654
 21
471.4482460533
 31
0.0
  0
LINE
  5
463
330
1F
100
AcDbEntity
  8
0
  6
Continuous
 62
     7
370
    25
100
AcDbLine
 10
192.3788329654
 20
472.4482460533
 30
0.0
 11
191.8788329654
 21
472.9482460533
 31
0.0
  0
LINE
  5
464
330
1F
100
AcDbEntity
  8
0
  6
Continuous
 62
     7
370
    25
100
AcDbLine
 10
192.3788329654
 20
471.2411392722
 30
0.0
 11
192.3788329654
 21
394.6553528345
 31
0.0
  0
LINE
  5
465
330
1F
100
AcDbEntity
  8
0
  6
Continuous
 62
     7
370
    25
100
AcDbLine
 10
192.3788329654
 20
394.6553528345
 30
0.0
 11
191.8788329654
 21
394.4482460533
 31
0.0
  0
LINE
  5
466
330
1F
100
AcDbEntity
  8
0
  6
Continuous
 62
     7
370
    25
100
AcDbLine
 10
192.3788329654
 20
394.6553528345
 30
0.0
 11
192.3788329654
 21
393.4482460533
 31
0.0
  0
LINE
  5
467
330
1F
100
AcDbEntity
  8
0
  6
Continuous
 62
     7
370
    25
100
AcDbLine
 10
192.3788329654
 20
393.4482460533
 30
0.0
 11
191.8788329654
 21
392.9482460533
 31
0.0
  0
LINE
  5
468
330
1F
100
AcDbEntity
  8
0
  6
Continuous
 62
     7
370
    25
100
AcDbLine
 10
191.8788329654
 20
392.9482460533
 30
0.0
 11
191.8788329654
 21
394.4482460533
 31
0.0
  0
LINE
  5
469
330
1F
100
AcDbEntity
  8
0
  6
Continuous
 62
     7
370
    25
100
AcDbLine
 10
187.3788329654
 20
392.9482460533
 30
0.0
 11
187.3788329654
 21
394.4482460533
 31
0.0
  0
LINE
  5
46A
330
1F
100
AcDbEntity
  8
0
  6
Continuous
 62
     7
370
    25
100
AcDbLine
 10
191.8788329654
 20
392.9482460533
 30
0.0
 11
187.3788329654
 21
392.9482460533
 31
0.0
  0
LINE
  5
46B
330
1F
100
AcDbEntity
  8
0
  6
Continuous
 62
     7
370
    25
100
AcDbLine
 10
179.0788329654
 20
424.2576577615
 30
0.0
 11
179.0788329654
 21
441.6388343452
 31
0.0
  0
ARC
  5
46C
330
1F
100
AcDbEntity
  8
0
  6
Continuous
 62
     7
370
    25
100
AcDbCircle
 10
182.3788329654
 20
444.6982460533
 30
0.0
 40
4.500000000000004
100
AcDbArc
 50
222.8334280661
 51
342.8537900011
  0
ARC
  5
46D
330
1F
100
AcDbEntity
  8
0
  6
Continuous
 62
     7
370
    25
100
AcDbCircle
 10
182.3788329654
 20
444.6982460533
 30
0.0
 40
4.500000000000004
100
AcDbArc
 50
17.1462099989
 51
137.1665719339
  0
LINE
  5
46E
330
1F
100
AcDbEntity
  8
0
  6
Continuous
 62
     7
370
    25
100
AcDbLine
 10
179.0788329654
 20
447.7576577615
 30
0.0
 11
179.0788329654
 21
457.9482460533
 31
0.0
  0
LINE
  5
46F
330
1F
100
AcDbEntity
  8
0
  6
Continuous
 62
     7
370
    25
100
AcDbLine
 10
179.0788329654
 20
407.9482460533
 30
0.0
 11
179.0788329654
 21
418.1388343452
 31
0.0
  0
ARC
  5
470
330
1F
100
AcDbEntity
  8
0
  6
Continuous
 62
     7
370
    25
100
AcDbCircle
 10
182.3788329654
 20
421.1982460533
 30
0.0
 40
4.500000000000043
100
AcDbArc
 50
222.8334280661
 51
342.8537900011
  0
ARC
  5
471
330
1F
100
AcDbEntity
  8
0
  6
Continuous
 62
     7
370
    25
100
AcDbCircle
 10
182.3788329654
 20
421.1982460533
 30
0.0
 40
4.500000000000004
100
AcDbArc
 50
17.1462099989
 51
137.1665719339
  0
LINE
  5
472
330
1F
100
AcDbEntity
  8
0
  6
Continuous
 62
     7
370
    25
100
AcDbLine
 10
179.0788329654
 20
457.9482460533
 30
0.0
 11
179.0788329654
 21
463.4482460533
 31
0.0
  0
LINE
  5
473
330
1F
100
AcDbEntity
  8
0
  6
Continuous
 62
     7
370
    25
100
AcDbLine
 10
179.0788329654
 20
402.4482460533
 30
0.0
 11
179.0788329654
 21
407.9482460533
 31
0.0
  0
LINE
  5
474
330
1F
100
AcDbEntity
  8
0
  6
Continuous
 62
     7
370
    25
100
AcDbLine
 10
178.6788329654
 20
417.9482460533
 30
0.0
 11
179.0788329654
 21
417.9482460533
 31
0.0
  0
LINE
  5
475
330
1F
100
AcDbEntity
  8
0
  6
Continuous
 62
     7
370
    25
100
AcDbLine
 10
178.6788329654
 20
447.9482460533
 30
0.0
 11
179.0788329654
 21
447.9482460533
 31
0.0
  0
LINE
  5
476
330
1F
100
AcDbEntity
  8
0
  6
Continuous
 62
     7
370
    25
100
AcDbLine
 10
179.0788329654
 20
424.2576577615
 30
0.0
 11
178.6788329654
 21
423.6478215212
 31
0.0
  0
LINE
  5
477
330
1F
100
AcDbEntity
  8
0
  6
Continuous
 62
     7
370
    25
100
AcDbLine
 10
178.6788329654
 20
418.6563198011
 30
0.0
 11
179.0788329654
 21
418.1388343452
 31
0.0
  0
LINE
  5
478
330
1F
100
AcDbEntity
  8
0
  6
Continuous
 62
     7
370
    25
100
AcDbLine
 10
179.0788329654
 20
447.7576577615
 30
0.0
 11
178.6788329654
 21
447.1478215212
 31
0.0
  0
LINE
  5
479
330
1F
100
AcDbEntity
  8
0
  6
Continuous
 62
     7
370
    25
100
AcDbLine
 10
178.6788329654
 20
442.1563198011
 30
0.0
 11
179.0788329654
 21
441.6388343452
 31
0.0
  0
LINE
  5
47A
330
1F
100
AcDbEntity
  8
0
  6
Continuous
 62
     7
370
    25
100
AcDbLine
 10
172.3788329654
 20
417.9482460533
 30
0.0
 11
172.3788329654
 21
447.9482460533
 31
0.0
  0
LINE
  5
47B
330
1F
100
AcDbEntity
  8
0
  6
Continuous
 62
     7
370
    25
100
AcDbLine
 10
172.4788329654
 20
417.9482460533
 30
0.0
 11
172.3788329654
 21
417.9482460533
 31
0.0
  0
LINE
  5
47C
330
1F
100
AcDbEntity
  8
0
  6
Continuous
 62
     7
370
    25
100
AcDbLine
 10
172.3788329654
 20
447.9482460533
 30
0.0
 11
172.4788329654
 21
447.9482460533
 31
0.0
  0
LINE
  5
47D
330
1F
100
AcDbEntity
  8
0
  6
Continuous
 62
     8
370
    25
100
AcDbLine
 10
178.6788329654
 20
464.0642298546
 30
0.0
 11
177.9788329654
 21
464.0642298546
 31
0.0
  0
LINE
  5
47E
330
1F
100
AcDbEntity
  8
0
  6
Continuous
 62
     8
370
    25
100
AcDbLine
 10
177.9788329654
 20
398.0642298546
 30
0.0
 11
178.6788329654
 21
398.0642298546
 31
0.0
  0
LINE
  5
47F
330
1F
100
AcDbEntity
  8
0
  6
Continuous
 62
     8
370
    25
100
AcDbLine
 10
187.3788329654
 20
465.9482460533
 30
0.0
 11
186.6788329654
 21
465.9482460533
 31
0.0
  0
LINE
  5
480
330
1F
100
AcDbEntity
  8
0
  6
Continuous
 62
     8
370
    25
100
AcDbLine
 10
186.6788329654
 20
399.9482460533
 30
0.0
 11
187.3788329654
 21
399.9482460533
 31
0.0
  0
LINE
  5
481
330
1F
100
AcDbEntity
  8
0
  6
Continuous
 62
     8
370
    25
100
AcDbLine
 10
179.0788329654
 20
448.8482460533
 30
0.0
 11
178.6788329654
 21
448.8482460533
 31
0.0
  0
LINE
  5
482
330
1F
100
AcDbEntity
  8
0
  6
Continuous
 62
     8
370
    25
100
AcDbLine
 10
178.6788329654
 20
417.0482460533
 30
0.0
 11
179.0788329654
 21
417.0482460533
 31
0.0
  0
LINE
  5
483
330
1F
100
AcDbEntity
  8
0
  6
Continuous
 62
     8
370
    25
100
AcDbLine
 10
186.6788329654
 20
457.9482460533
 30
0.0
 11
179.0788329654
 21
457.9482460533
 31
0.0
  0
LINE
  5
484
330
1F
100
AcDbEntity
  8
0
  6
Continuous
 62
     8
370
    25
100
AcDbLine
 10
186.6788329654
 20
407.9482460533
 30
0.0
 11
179.0788329654
 21
407.9482460533
 31
0.0
  0
TEXT
  5
4FC
330
1F
100
AcDbEntity
  8
0
  6
Continuous
 62
     7
370
     0
100
AcDbText
 10
397.4630456341664
 20
553.9911785163512
 30
0.0
 40
10.0
  1
8505N
100
AcDbText
  0
ENDSEC
  0
SECTION
  2
OBJECTS
  0
DICTIONARY
  5
C
330
0
100
AcDbDictionary
281
     1
  3
ACAD_GROUP
350
D
  3
ACAD_LAYOUT
350
1A
  3
ACAD_MLINESTYLE
350
17
  3
ACAD_PLOTSETTINGS
350
19
  3
ACAD_PLOTSTYLENAME
350
E
  3
ACAD_SCALELIST
350
47
  3
APPDATA
350
4A6
  3
DWGPROPS
350
4FD
  0
DICTIONARY
  5
D
102
{ACAD_REACTORS
330
C
102
}
330
C
100
AcDbDictionary
281
     1
  0
DICTIONARY
  5
1A
102
{ACAD_REACTORS
330
C
102
}
330
C
100
AcDbDictionary
281
     1
  3
Layout1
350
1E
  3
Layout2
350
26
  3
Model
350
22
  0
DICTIONARY
  5
17
102
{ACAD_REACTORS
330
C
102
}
330
C
100
AcDbDictionary
281
     1
  3
Standard
350
18
  0
DICTIONARY
  5
19
102
{ACAD_REACTORS
330
C
102
}
330
C
100
AcDbDictionary
281
     1
  0
ACDBDICTIONARYWDFLT
  5
E
102
{ACAD_REACTORS
330
C
102
}
330
C
100
AcDbDictionary
281
     1
  3
Normal
350
F
100
AcDbDictionaryWithDefault
340
F
  0
DICTIONARY
  5
47
102
{ACAD_REACTORS
330
C
102
}
330
C
100
AcDbDictionary
281
     1
  3
A0
350
48
  3
A1
350
49
  3
A2
350
4A
  3
A3
350
4B
  3
A4
350
4C
  3
A5
350
4D
  3
A6
350
4E
  3
A7
350
4F
  3
A8
350
50
  3
A9
350
51
  3
B0
350
52
  3
B1
350
53
  3
B2
350
54
  3
B3
350
55
  3
B4
350
56
  3
B5
350
57
  3
B6
350
58
  3
B7
350
59
  3
B8
350
5A
  3
B9
350
5B
  3
C0
350
5C
  3
C1
350
5D
  3
C2
350
5E
  3
C3
350
5F
  3
C4
350
60
  3
C5
350
61
  3
C6
350
62
  3
C7
350
63
  3
C8
350
64
  3
C9
350
65
  3
D0
350
66
  3
D1
350
67
  3
D2
350
68
  0
DICTIONARY
  5
4A6
102
{ACAD_REACTORS
330
C
102
}
330
C
100
AcDbDictionary
281
     1
  0
XRECORD
  5
4FD
102
{ACAD_REACTORS
330
C
102
}
330
C
100
AcDbXrecord
280
     1
  1
DWGPROPS COOKIE
  2

  3

  4

  6

  7

  8
emilio.pezzoli
  9

300
=
301
=
302
=
303
=
304
=
305
=
306
=
307
=
308
=
309
=
 40
0.0
 41
2458334.39507794
 42
2458334.396792014
  1

 90
        0
  0
LAYOUT
  5
1E
102
{ACAD_REACTORS
330
1A
102
}
330
1A
100
AcDbPlotSettings
  1

  2
none_device
  4

  6

 40
0.0
 41
0.0
 42
0.0
 43
0.0
 44
0.0
 45
0.0
 46
0.0
 47
0.0
 48
0.0
 49
0.0
140
0.0
141
0.0
142
1.0
143
1.0
 70
   688
 72
     1
 73
     0
 74
     5
  7

 75
    16
147
1.0
148
0.0
149
0.0
100
AcDbLayout
  1
Layout1
 70
     1
 71
     1
 10
0.0
 20
0.0
 11
420.0
 21
297.0
 12
0.0
 22
0.0
 32
0.0
 14
1.000000000000000E+20
 24
1.000000000000000E+20
 34
1.000000000000000E+20
 15
-1.000000000000000E+20
 25
-1.000000000000000E+20
 35
-1.000000000000000E+20
146
0.0
 13
0.0
 23
0.0
 33
0.0
 16
1.0
 26
0.0
 36
0.0
 17
0.0
 27
1.0
 37
0.0
 76
     0
330
1B
  0
LAYOUT
  5
26
102
{ACAD_REACTORS
330
1A
102
}
330
1A
100
AcDbPlotSettings
  1

  2
none_device
  4

  6

 40
0.0
 41
0.0
 42
0.0
 43
0.0
 44
0.0
 45
0.0
 46
0.0
 47
0.0
 48
0.0
 49
0.0
140
0.0
141
0.0
142
1.0
143
1.0
 70
   688
 72
     1
 73
     0
 74
     5
  7

 75
    16
147
1.0
148
0.0
149
0.0
100
AcDbLayout
  1
Layout2
 70
     1
 71
     2
 10
0.0
 20
0.0
 11
0.0
 21
0.0
 12
0.0
 22
0.0
 32
0.0
 14
0.0
 24
0.0
 34
0.0
 15
0.0
 25
0.0
 35
0.0
146
0.0
 13
0.0
 23
0.0
 33
0.0
 16
1.0
 26
0.0
 36
0.0
 17
0.0
 27
1.0
 37
0.0
 76
     0
330
23
  0
LAYOUT
  5
22
102
{ACAD_REACTORS
330
1A
102
}
330
1A
100
AcDbPlotSettings
  1

  2
none_device
  4
Letter_(8.50_x_11.00_Inches)
  6

 40
6.35
 41
6.35
 42
6.35000508
 43
6.35000508
 44
215.9
 45
279.4
 46
0.0
 47
0.0
 48
0.0
 49
0.0
140
0.0
141
0.0
142
1.0
143
1.0
 70
  1712
 72
     1
 73
     0
 74
     0
  7

 75
     0
147
1.0
148
0.0
149
0.0
100
AcDbLayout
  1
Model
 70
     1
 71
     0
 10
0.0
 20
0.0
 11
840.0
 21
594.0
 12
0.0
 22
0.0
 32
0.0
 14
22.0404696818
 24
274.4754635133
 34
0.0
 15
442.4630456341664
 25
563.9911785163512
 35
0.0
146
0.0
 13
0.0
 23
0.0
 33
0.0
 16
1.0
 26
0.0
 36
0.0
 17
0.0
 27
1.0
 37
0.0
 76
     0
330
1F
331
29
  0
MLINESTYLE
  5
18
102
{ACAD_REACTORS
330
17
102
}
330
17
100
AcDbMlineStyle
  2
Standard
 70
     0
  3

 62
   256
 51
90.0
 52
90.0
 71
     2
 49
0.5
 62
   256
  6
BYLAYER
 49
-0.5
 62
   256
  6
BYLAYER
  0
ACDBPLACEHOLDER
  5
F
102
{ACAD_REACTORS
330
E
102
}
330
E
  0
SCALE
  5
48
102
{ACAD_REACTORS
330
47
102
}
330
47
100
AcDbScale
 70
     0
300
1:1
140
1.0
141
1.0
290
     1
  0
SCALE
  5
49
102
{ACAD_REACTORS
330
47
102
}
330
47
100
AcDbScale
 70
     0
300
1:2
140
1.0
141
2.0
290
     0
  0
SCALE
  5
4A
102
{ACAD_REACTORS
330
47
102
}
330
47
100
AcDbScale
 70
     0
300
1:4
140
1.0
141
4.0
290
     0
  0
SCALE
  5
4B
102
{ACAD_REACTORS
330
47
102
}
330
47
100
AcDbScale
 70
     0
300
1:5
140
1.0
141
5.0
290
     0
  0
SCALE
  5
4C
102
{ACAD_REACTORS
330
47
102
}
330
47
100
AcDbScale
 70
     0
300
1:8
140
1.0
141
8.0
290
     0
  0
SCALE
  5
4D
102
{ACAD_REACTORS
330
47
102
}
330
47
100
AcDbScale
 70
     0
300
1:10
140
1.0
141
10.0
290
     0
  0
SCALE
  5
4E
102
{ACAD_REACTORS
330
47
102
}
330
47
100
AcDbScale
 70
     0
300
1:16
140
1.0
141
16.0
290
     0
  0
SCALE
  5
4F
102
{ACAD_REACTORS
330
47
102
}
330
47
100
AcDbScale
 70
     0
300
1:20
140
1.0
141
20.0
290
     0
  0
SCALE
  5
50
102
{ACAD_REACTORS
330
47
102
}
330
47
100
AcDbScale
 70
     0
300
1:30
140
1.0
141
30.0
290
     0
  0
SCALE
  5
51
102
{ACAD_REACTORS
330
47
102
}
330
47
100
AcDbScale
 70
     0
300
1:40
140
1.0
141
40.0
290
     0
  0
SCALE
  5
52
102
{ACAD_REACTORS
330
47
102
}
330
47
100
AcDbScale
 70
     0
300
1:50
140
1.0
141
50.0
290
     0
  0
SCALE
  5
53
102
{ACAD_REACTORS
330
47
102
}
330
47
100
AcDbScale
 70
     0
300
1:100
140
1.0
141
100.0
290
     0
  0
SCALE
  5
54
102
{ACAD_REACTORS
330
47
102
}
330
47
100
AcDbScale
 70
     0
300
2:1
140
2.0
141
1.0
290
     0
  0
SCALE
  5
55
102
{ACAD_REACTORS
330
47
102
}
330
47
100
AcDbScale
 70
     0
300
4:1
140
4.0
141
1.0
290
     0
  0
SCALE
  5
56
102
{ACAD_REACTORS
330
47
102
}
330
47
100
AcDbScale
 70
     0
300
8:1
140
8.0
141
1.0
290
     0
  0
SCALE
  5
57
102
{ACAD_REACTORS
330
47
102
}
330
47
100
AcDbScale
 70
     0
300
10:1
140
10.0
141
1.0
290
     0
  0
SCALE
  5
58
102
{ACAD_REACTORS
330
47
102
}
330
47
100
AcDbScale
 70
     0
300
100:1
140
100.0
141
1.0
290
     0
  0
SCALE
  5
59
102
{ACAD_REACTORS
330
47
102
}
330
47
100
AcDbScale
 70
     0
300
1/128" = 1'-0"
140
0.0078125
141
12.0
290
     0
  0
SCALE
  5
5A
102
{ACAD_REACTORS
330
47
102
}
330
47
100
AcDbScale
 70
     0
300
1/64" = 1'-0"
140
0.015625
141
12.0
290
     0
  0
SCALE
  5
5B
102
{ACAD_REACTORS
330
47
102
}
330
47
100
AcDbScale
 70
     0
300
1/32" = 1'-0"
140
0.03125
141
12.0
290
     0
  0
SCALE
  5
5C
102
{ACAD_REACTORS
330
47
102
}
330
47
100
AcDbScale
 70
     0
300
1/16" = 1'-0"
140
0.0625
141
12.0
290
     0
  0
SCALE
  5
5D
102
{ACAD_REACTORS
330
47
102
}
330
47
100
AcDbScale
 70
     0
300
3/32" = 1'-0"
140
0.09375
141
12.0
290
     0
  0
SCALE
  5
5E
102
{ACAD_REACTORS
330
47
102
}
330
47
100
AcDbScale
 70
     0
300
1/8" = 1'-0"
140
0.125
141
12.0
290
     0
  0
SCALE
  5
5F
102
{ACAD_REACTORS
330
47
102
}
330
47
100
AcDbScale
 70
     0
300
3/16" = 1'-0"
140
0.1875
141
12.0
290
     0
  0
SCALE
  5
60
102
{ACAD_REACTORS
330
47
102
}
330
47
100
AcDbScale
 70
     0
300
1/4" = 1'-0"
140
0.25
141
12.0
290
     0
  0
SCALE
  5
61
102
{ACAD_REACTORS
330
47
102
}
330
47
100
AcDbScale
 70
     0
300
3/8" = 1'-0"
140
0.375
141
12.0
290
     0
  0
SCALE
  5
62
102
{ACAD_REACTORS
330
47
102
}
330
47
100
AcDbScale
 70
     0
300
1/2" = 1'-0"
140
0.5
141
12.0
290
     0
  0
SCALE
  5
63
102
{ACAD_REACTORS
330
47
102
}
330
47
100
AcDbScale
 70
     0
300
3/4" = 1'-0"
140
0.75
141
12.0
290
     0
  0
SCALE
  5
64
102
{ACAD_REACTORS
330
47
102
}
330
47
100
AcDbScale
 70
     0
300
1" = 1'-0"
140
1.0
141
12.0
290
     0
  0
SCALE
  5
65
102
{ACAD_REACTORS
330
47
102
}
330
47
100
AcDbScale
 70
     0
300
1-1/2" = 1'-0"
140
1.5
141
12.0
290
     0
  0
SCALE
  5
66
102
{ACAD_REACTORS
330
47
102
}
330
47
100
AcDbScale
 70
     0
300
3" = 1'-0"
140
3.0
141
12.0
290
     0
  0
SCALE
  5
67
102
{ACAD_REACTORS
330
47
102
}
330
47
100
AcDbScale
 70
     0
300
6" = 1'-0"
140
6.0
141
12.0
290
     0
  0
SCALE
  5
68
102
{ACAD_REACTORS
330
47
102
}
330
47
100
AcDbScale
 70
     0
300
1'-0" = 1'-0"
140
12.0
141
12.0
290
     0
  0
ENDSEC
  0
EOF
